conanlcg
超级版主

[更 早] [欧美] [喜剧] [WEB-1080P] 淘金者一九三七/1937年淘金女郎 Gold.Diggers.of.1937.1936.1080p.WEBRip.x264-RARBG 1.92GB

-->

帖子完整标题:淘金者一九三七/1937年淘金女郎 Gold.Diggers.of.1937.1936.1080p.WEBRip.x264-RARBG 1.92GB




◎译  名 淘金者一九三七 / 1937年淘金女郎
◎片  名 Gold Diggers of 1937
◎年  代 1936
◎产  地 美国
◎类  别 喜剧 / 爱情 / 歌舞
◎语  言 英语
◎上映日期 1936-12-28
◎IMDb评分 6.5/10 from 847 users
◎IMDb链接 http://www.imdb.com/title/tt0027686
◎豆瓣评分 0/10 from 0 users
◎豆瓣链接 https://movie.douban.com/subject/1305019/
◎片  长 101 分钟
◎导  演 劳埃德·培根 Lloyd Bacon
◎编  剧 Warren Duff
◎主  演 迪克·鲍威尔 Dick Powell
      Joan Blondell
      Glenda Farrell


◎标  签 美国 | Joan_Blondell | 1930s | 美国电影 | 1936 | 经典 | 爱情 | 歌舞

◎简  介

  暂无相关剧情介绍

◎获奖情况

  第9届奥斯卡金像奖(1937)
  最佳舞蹈指导(提名) 巴斯比·伯克利
Video
ID : 1
Format : AVC
Format/Info : Advanced Video Codec
Format profile : [email protected]
Format settings : CABAC / 4 Ref Frames
Format settings, CABAC : Yes
Format settings, Reference frames : 4 frames
Codec ID : avc1
Codec ID/Info : Advanced Video Coding
Duration : 1 h 40 min
Bit rate : 2 500 kb/s
Width : 1 440 pixels
Height : 1 080 pixels
Display aspect ratio : 4:3
Frame rate mode : Constant
Frame rate : 23.976 (23976/1000) FPS
Color space : YUV
Chroma subsampling : 4:2:0
Bit depth : 8 bits
Scan type : Progressive
Bits/(Pixel*Frame) : 0.067
Stream size : 1.76 GiB (92%)
Writing library : x264 core 152 r2851M ba24899
Encoding settings : cabac=1 / ref=4 / deblock=1:-1:-1 / analyse=0x3:0x113 / me=umh / subme=9 / psy=1 / psy_rd=1.00:0.15 / mixed_ref=1 / me_range=24 / chroma_me=1 / trellis=2 / 8x8dct=1 / cqm=0 / deadzone=21,11 / fast_pskip=1 / chroma_qp_offset=-3 / threads=16 / lookahead_threads=4 / sliced_threads=0 / nr=0 / decimate=1 / interlaced=0 / bluray_compat=0 / constrained_intra=0 / bframes=3 / b_pyramid=2 / b_adapt=2 / b_bias=0 / direct=3 / weightb=1 / open_gop=0 / weightp=2 / keyint=250 / keyint_min=25 / scenecut=40 / intra_refresh=0 / rc_lookahead=50 / rc=2pass / mbtree=1 / bitrate=2500 / ratetol=1.0 / qcomp=0.60 / qpmin=0 / qpmax=69 / qpstep=4 / cplxblur=20.0 / qblur=0.5 / vbv_maxrate=31250 / vbv_bufsize=31250 / nal_hrd=none / filler=0 / ip_ratio=1.40 / aq=3:1.00
Encoded date : UTC 2019-09-11 05:14:27
Tagged date : UTC 2019-09-11 05:14:27
Codec configuration box : avcC

Audio
ID : 2
Format : AAC LC
Format/Info : Advanced Audio Codec Low Complexity
Codec ID : mp4a-40-2
Duration : 1 h 40 min
Bit rate mode : Constant
Bit rate : 224 kb/s
Channel(s) : 2 channels
Channel layout : L R
Sampling rate : 48.0 kHz
Frame rate : 46.875 FPS (1024 SPF)
Compression mode : Lossy
Stream size : 162 MiB (8%)
Language : English
Default : Yes
Alternate group : 1
Encoded date : UTC 2019-09-11 05:14:27
Tagged date : UTC 2019-09-11 05:14:27





1 个附件 售价 大小 下载 时间

Gold.Diggers.of.1937.1936.1080p.WEBRip.x264-RARBG.torrent 0 金币 19.89K 147 次 8天前

#1楼
发帖时间:2019-09-11 18:13:34   |   回复数:2
liyouchai
隐世仙人♂
谢谢楼主分享资源
8天前 #2楼
911degrees
隐世仙人♂
非常感谢,谢谢分享
7天前 #3楼
游客组