conanlcg
超级版主

[更 早] [欧美] [喜剧] [WEB-1080P] 淘金者一九三七/1937年淘金女郎 Gold.Diggers.of.1937.1936.1080p.AMZN.WEBRip.DDP2.0.x264-SbR 6.

-->

帖子完整标题:淘金者一九三七/1937年淘金女郎 Gold.Diggers.of.1937.1936.1080p.AMZN.WEBRip.DDP2.0.x264-SbR 6.09GB




◎译  名 淘金者一九三七 / 1937年淘金女郎
◎片  名 Gold Diggers of 1937
◎年  代 1936
◎产  地 美国
◎类  别 喜剧 / 爱情 / 歌舞
◎语  言 英语
◎上映日期 1936-12-28
◎IMDb评分 6.5/10 from 847 users
◎IMDb链接 http://www.imdb.com/title/tt0027686
◎豆瓣评分 0/10 from 0 users
◎豆瓣链接 https://movie.douban.com/subject/1305019/
◎片  长 101 分钟
◎导  演 劳埃德·培根 Lloyd Bacon
◎编  剧 Warren Duff
◎主  演 迪克·鲍威尔 Dick Powell
      Joan Blondell
      Glenda Farrell


◎标  签 美国 | Joan_Blondell | 1930s | 美国电影 | 1936 | 经典 | 爱情 | 歌舞

◎简  介

  暂无相关剧情介绍

◎获奖情况

  第9届奥斯卡金像奖(1937)
  最佳舞蹈指导(提名) 巴斯比·伯克利
Video
ID : 1
Format : AVC
Format/Info : Advanced Video Codec
Format profile : [email protected]
Format settings : CABAC / 4 Ref Frames
Format settings, CABAC : Yes
Format settings, Reference frames : 4 frames
Codec ID : V_MPEG4/ISO/AVC
Duration : 1 h 40 min
Bit rate mode : Variable
Bit rate : 8 418 kb/s
Maximum bit rate : 15.0 Mb/s
Width : 1 440 pixels
Height : 1 080 pixels
Display aspect ratio : 1.374
Original display aspect ratio : 4:3
Frame rate mode : Constant
Frame rate : 23.976 (24000/1001) FPS
Color space : YUV
Chroma subsampling : 4:2:0
Bit depth : 8 bits
Scan type : Progressive
Bits/(Pixel*Frame) : 0.226
Stream size : 5.93 GiB (97%)
Language : English
Default : Yes
Forced : No
Color range : Limited
Color primaries : BT.709
Transfer characteristics : BT.709
Matrix coefficients : BT.709

Audio
ID : 2
Format : E-AC-3
Format/Info : Enhanced AC-3
Commercial name : Dolby Digital Plus
Codec ID : A_EAC3
Duration : 1 h 40 min
Bit rate mode : Constant
Bit rate : 224 kb/s
Channel(s) : 2 channels
Channel layout : L R
Sampling rate : 48.0 kHz
Frame rate : 31.250 FPS (1536 SPF)
Compression mode : Lossy
Stream size : 162 MiB (3%)
Language : English
Service kind : Complete Main
Default : Yes
Forced : No

Text #1
ID : 3
Format : UTF-8
Codec ID : S_TEXT/UTF8
Codec ID/Info : UTF-8 Plain Text
Duration : 1 h 39 min
Bit rate : 85 b/s
Count of elements : 1784
Stream size : 62.2 KiB (0%)
Language : English
Default : No
Forced : No

Text #2
ID : 4
Format : UTF-8
Codec ID : S_TEXT/UTF8
Codec ID/Info : UTF-8 Plain Text
Duration : 1 h 40 min
Bit rate : 86 b/s
Count of elements : 1847
Stream size : 63.3 KiB (0%)
Title : SDH
Language : English
Default : No
Forced : No

Menu
00:00:00.000 : en:01. Plenty of Credits
00:01:27.548 : en:02. Life Insurance Song
00:04:59.594 : en:03. Jolly Maids to Gold Diggers
00:08:36.685 : en:04. Getting Acquainted
00:13:15.422 : en:05. Close Shave
00:16:49.344 : en:06. Zip for Insurance
00:19:46.813 : en:07. Speaking of the Weather: Song
00:23:59.232 : en:08. Gen's Referral
00:28:34.340 : en:09. JJ's Jitters
00:32:03.216 : en:10. Million-Dollar Policy
00:36:27.146 : en:11. Signed Like a Baby
00:40:18.210 : en:12. With Plenty of Money and You
00:43:21.727 : en:13. Medical Exam Jam
00:47:28.265 : en:14. Bum Ticker, Passing Grade
00:50:51.176 : en:15. Death of the Party
00:55:03.595 : en:16. Life Begins at 59
00:58:58.329 : en:17. Let's Put Our Heads Together
01:02:34.879 : en:18. Speaking of the Weather: Dance
01:05:40.439 : en:19. Pooled Resources
01:08:16.595 : en:20. Debutante Gen
01:14:21.126 : en:21. Ideas About the Show
01:17:05.749 : en:22. Sickening Truth
01:20:40.171 : en:23. Rallying the Troupe
01:23:59.162 : en:24. Memory and Matrimony
01:28:50.620 : en:25. All's Fair in Love and War
01:40:23.478 : en:26. Cast List





1 个附件 售价 大小 下载 时间

Gold.Diggers.of.1937.1936.1080p.AMZN.WEBRip.DDP2.0.x264-SbR.torrent 0 金币 61.43K 203 次 8天前

#1楼
发帖时间:2019-09-11 18:20:36   |   回复数:2
liyouchai
隐世仙人♂
谢谢楼主分享资源
8天前 #2楼
911degrees
隐世仙人♂
非常感谢,谢谢分享
7天前 #3楼
游客组