conanlcg
超级版主

[2011] [其他] [剧情] [BD-1080P] 内陆 Terraferma.2011.1080p.BluRay.x264-PHOBOS 7.94GB

-->

帖子完整标题:内陆 Terraferma.2011.1080p.BluRay.x264-PHOBOS 7.94GB




◎译  名 内陆 / Mainland / 内地 / 大陆
◎片  名 Terraferma
◎年  代 2011
◎产  地 意大利 / 法国
◎类  别 剧情
◎语  言 意大利语 / 西西里语 / 阿姆哈拉语
◎上映日期 2011-09-07(意大利)
◎IMDb评分 6.8/10 from 2815 users
◎IMDb链接 http://www.imdb.com/title/tt1641410
◎豆瓣评分 7.1/10 from 628 users
◎豆瓣链接 https://movie.douban.com/subject/5153008/
◎片  长 88分钟
◎导  演 艾曼纽尔·克里亚勒斯 Emanuele Crialese
◎编  剧 艾曼纽尔·克里亚勒斯 Emanuele Crialese / Vittorio Moroni
◎主  演 唐娜提拉·芬诺恰罗 Donatella Finocchiaro
      贝佩·费奥雷罗 Beppe Fiorello
      Mimmo Cuticchio
      Martina Codecasa
      Filippo Pucillo
      蒂兹亚娜·罗达托 Tiziana Lodato
      克劳迪奥·桑塔玛利亚 Claudio Santamaria
      Filippo Scarafia


◎标  签 意大利 | 意大利电影 | 剧情 | 人性 | 2011 | 法国 | 第68届威尼斯电影节 | EmanueleCrialese

◎简  介

  故事发生在风景如诗如画的意大利海岛之上,埃内斯托(Mimmo Cuticchio 饰)一家人就生活在这里。早年间,埃斯内托的儿子在一次出海后就再也没有回来过,留下年幼的儿子菲利普(Filippo Pucillo 饰)和母亲朱丽叶塔(唐娜提拉·芬诺恰罗 Donatella Finocchiaro 饰)过着相依为命的生活。所幸得到了埃内斯托和叔叔尼诺(贝佩·费奥雷罗 Beppe Fiorello 饰)的帮助,母子两人才能够拥有稳定的生活。
  在失去了丈夫之后,朱丽叶塔终日生活在孤独和寂寞之中,她觉得这个小岛正在渐渐的扼杀的她的灵魂,唯一幸免的方式就是离开这里。某天,一群在落难的游客漂流到了这座海岛之上,打破了笼罩在这里的一贯的宁静。

◎获奖情况

  第68届威尼斯电影节(2011)
  金狮奖(提名) 艾曼纽尔·克里亚勒斯
  评审团特别奖 艾曼纽尔·克里亚勒斯
  联合国儿童基金会奖 艾曼纽尔·克里亚勒斯
  帕西内蒂奖 最佳电影 艾曼纽尔·克里亚勒斯

  第56届意大利大卫奖(2012)
  最佳影片(提名) Giovanni Stabilini / Riccardo Tozzi / 艾曼纽尔·克里亚勒斯 / Marco Chimenz
  最佳导演(提名) 艾曼纽尔·克里亚勒斯
  最佳女主角(提名) 唐娜提拉·芬诺恰罗
Video
ID : 1
Format : AVC
Format/Info : Advanced Video Codec
Format profile : [email protected]
Format settings : CABAC / 5 Ref Frames
Format settings, CABAC : Yes
Format settings, Reference frames : 5 frames
Codec ID : V_MPEG4/ISO/AVC
Duration : 1 h 33 min
Bit rate : 10.7 Mb/s
Width : 1 920 pixels
Height : 816 pixels
Display aspect ratio : 2.35:1
Frame rate mode : Constant
Frame rate : 23.976 (24000/1001) FPS
Color space : YUV
Chroma subsampling : 4:2:0
Bit depth : 8 bits
Scan type : Progressive
Bits/(Pixel*Frame) : 0.284
Stream size : 6.96 GiB (88%)
Writing library : x264 core 144 r2525 40bb568
Encoding settings : cabac=1 / ref=5 / deblock=1:0:0 / analyse=0x3:0x113 / me=umh / subme=8 / psy=1 / psy_rd=1.00:0.00 / mixed_ref=1 / me_range=16 / chroma_me=1 / trellis=1 / 8x8dct=1 / cqm=0 / deadzone=21,11 / fast_pskip=0 / chroma_qp_offset=-2 / threads=12 / lookahead_threads=2 / sliced_threads=0 / nr=0 / decimate=1 / interlaced=0 / bluray_compat=0 / constrained_intra=0 / bframes=3 / b_pyramid=2 / b_adapt=2 / b_bias=0 / direct=1 / weightb=1 / open_gop=0 / weightp=2 / keyint=230 / keyint_min=23 / scenecut=40 / intra_refresh=0 / rc_lookahead=50 / rc=2pass / mbtree=1 / bitrate=10675 / ratetol=1.0 / qcomp=0.60 / qpmin=0 / qpmax=69 / qpstep=4 / cplxblur=20.0 / qblur=0.5 / ip_ratio=1.40 / aq=1:1.00
Language : English
Default : Yes
Forced : No
Color range : Limited
Matrix coefficients : BT.709

Audio
ID : 3
Format : DTS
Format/Info : Digital Theater Systems
Codec ID : A_DTS
Duration : 1 h 33 min
Bit rate mode : Constant
Bit rate : 1 509 kb/s
Channel(s) : 6 channels
Channel layout : C L R Ls Rs LFE
Sampling rate : 48.0 kHz
Frame rate : 93.750 FPS (512 SPF)
Bit depth : 24 bits
Compression mode : Lossy
Stream size : 1 008 MiB (12%)
Language : Italian
Default : Yes
Forced : No

Text
ID : 2
Format : UTF-8
Codec ID : S_TEXT/UTF8
Codec ID/Info : UTF-8 Plain Text
Duration : 1 h 22 min
Bit rate : 28 b/s
Count of elements : 671
Stream size : 17.2 KiB (0%)
Language : English
Default : Yes
Forced : Yes

Menu
00:00:00.000 : en:00:00:00.000
00:05:13.772 : en:00:05:13.772
00:11:49.500 : en:00:11:49.500
00:18:07.878 : en:00:18:07.878
00:22:44.989 : en:00:22:44.989
00:30:11.893 : en:00:30:11.893
00:36:16.716 : en:00:36:16.716
00:41:48.965 : en:00:41:48.965
00:47:20.463 : en:00:47:20.463
00:55:29.076 : en:00:55:29.076
01:01:58.798 : en:01:01:58.798
01:08:10.670 : en:01:08:10.670
01:13:07.633 : en:01:13:07.633
01:17:58.883 : en:01:17:58.883
01:22:27.651 : en:01:22:27.651
01:28:45.320 : en:01:28:45.320





1 个附件 售价 大小 下载 时间

Terraferma.2011.1080p.BluRay.x264-PHOBOS.torrent 0 金币 40.23K 392 次 8天前

#1楼
发帖时间:2019-09-11 18:43:56   |   回复数:3
tanchoohoon
武林盟主
感谢楼主的无私分享
8天前 #2楼
liyouchai
隐世仙人♂
谢谢楼主分享资源
8天前 #3楼
911degrees
隐世仙人♂
非常感谢,谢谢分享
7天前 #4楼
游客组