conanlcg
超级版主

[2018] [欧美] [其他] [WEB-1080P] 共济会的秘密 Secrets.of.The.Masons.2018.1080p.WEBRip.x264-RARBG 1.11GB

-->

帖子完整标题:共济会的秘密 Secrets.of.The.Masons.2018.1080p.WEBRip.x264-RARBG 1.11GB




◎译  名 共济会的秘密
◎片  名 Secrets of The Masons
◎年  代 2018
◎产  地 英国
◎类  别 纪录片
◎语  言 英语
◎上映日期 2018-03-20(英国)
◎IMDb评分 6.1/10 from 11 users
◎IMDb链接 https://www.imdb.com/title/tt8160744
◎豆瓣评分 0/10 from 0 users
◎豆瓣链接 https://movie.douban.com/subject/30176266/
◎片  长 60分钟

◎标  签 纪录片 | BBC | 共济会 | 英国 | 历史 | 苏格兰 | 2018 | 英国电影

◎简  介

  History of the Masons starting with Stone Masons and secrets of Construction, to becoming like the Boy qiwan.cc Scouts for Men of making Men better Men.
Video
ID : 1
Format : AVC
Format/Info : Advanced Video Codec
Format profile : [email protected]
Format settings : CABAC / 4 Ref Frames
Format settings, CABAC : Yes
Format settings, Reference frames : 4 frames
Codec ID : avc1
Codec ID/Info : Advanced Video Coding
Duration : 57 min 59 s
Bit rate : 2 500 kb/s
Width : 1 920 pixels
Height : 1 080 pixels
Display aspect ratio : 16:9
Frame rate mode : Constant
Frame rate : 25.000 FPS
Color space : YUV
Chroma subsampling : 4:2:0
Bit depth : 8 bits
Scan type : Progressive
Bits/(Pixel*Frame) : 0.048
Stream size : 1.01 GiB (92%)
Writing library : x264 core 152 r2851M ba24899
Encoding settings : cabac=1 / ref=4 / deblock=1:-1:-1 / analyse=0x3:0x113 / me=umh / subme=9 / psy=1 / psy_rd=1.00:0.15 / mixed_ref=1 / me_range=24 / chroma_me=1 / trellis=2 / 8x8dct=1 / cqm=0 / deadzone=21,11 / fast_pskip=1 / chroma_qp_offset=-3 / threads=16 / lookahead_threads=4 / sliced_threads=0 / nr=0 / decimate=1 / interlaced=0 / bluray_compat=0 / constrained_intra=0 / bframes=3 / b_pyramid=2 / b_adapt=2 / b_bias=0 / direct=3 / weightb=1 / open_gop=0 / weightp=2 / keyint=250 / keyint_min=25 / scenecut=40 / intra_refresh=0 / rc_lookahead=50 / rc=2pass / mbtree=1 / bitrate=2500 / ratetol=1.0 / qcomp=0.60 / qpmin=0 / qpmax=69 / qpstep=4 / cplxblur=20.0 / qblur=0.5 / vbv_maxrate=31250 / vbv_bufsize=31250 / nal_hrd=none / filler=0 / ip_ratio=1.40 / aq=3:1.00
Encoded date : UTC 2019-11-08 12:15:43
Tagged date : UTC 2019-11-08 12:15:43
Codec configuration box : avcC

Audio
ID : 2
Format : AAC LC
Format/Info : Advanced Audio Codec Low Complexity
Codec ID : mp4a-40-2
Duration : 57 min 59 s
Duration_LastFrame : -11 ms
Bit rate mode : Constant
Bit rate : 224 kb/s
Channel(s) : 2 channels
Channel layout : L R
Sampling rate : 48.0 kHz
Frame rate : 46.875 FPS (1024 SPF)
Compression mode : Lossy
Stream size : 92.9 MiB (8%)
Language : English
Default : Yes
Alternate group : 1
Encoded date : UTC 2019-11-08 12:15:43
Tagged date : UTC 2019-11-08 12:15:43





1 个附件 售价 大小 下载 时间

Secrets.of.The.Masons.2018.1080p.WEBRip.x264-RARBG.torrent 0 金币 11.66K 315 次 13天前

#1楼
发帖时间:2019-11-08 21:32:27   |   回复数:2
911degrees
隐世仙人♂
非常感谢,谢谢分享
12天前 #2楼
tanchoohoon
武林盟主
感谢楼主的无私分享
12天前 #3楼
游客组