conanlcg
超级版主

[2015] [欧美] [其他] [WEB-1080P] 剩女童话 Crown.For.Christmas.2015.1080p.WEBRip.x264-RARBG 1.65GB

-->

帖子完整标题:剩女童话 Crown.For.Christmas.2015.1080p.WEBRip.x264-RARBG 1.65GB




◎译  名 剩女童话
◎片  名 Crown for Christmas
◎年  代 2015
◎产  地 美国
◎类  别 家庭 / 儿童
◎语  言 英语
◎上映日期 2015-11-15
◎IMDb评分 7.0/10 from 3177 users
◎IMDb链接 https://www.imdb.com/title/tt5133572
◎豆瓣评分 5.9/10 from 159 users
◎豆瓣链接 https://movie.douban.com/subject/26678791/
◎片  长 84分钟
◎导  演 亚历克斯·帕斯特尔 àlex Pastor
◎主  演 丹妮卡·麦凯拉 Danica McKellar
      鲁伯特·彭利-琼斯 Rupert Penry-Jones
      Alexandra Evans


◎标  签 爱情 | 美国 | 灰姑娘 | 美国电影 | 喜剧 | christmas | 浪漫 | 家庭

◎简  介

  Allie,一个平凡的女佣,老了多年的老姑娘(Danica McKellar)实现了她的灰姑娘之梦……
  她在这个梦里与恶公主
  进行了精彩的宫斗。
Video
ID : 1
Format : AVC
Format/Info : Advanced Video Codec
Format profile : [email protected]
Format settings : CABAC / 4 Ref Frames
Format settings, CABAC : Yes
Format settings, Reference frames : 4 frames
Codec ID : avc1
Codec ID/Info : Advanced Video Coding
Duration : 1 h 26 min
Bit rate : 2 500 kb/s
Width : 1 920 pixels
Height : 1 080 pixels
Display aspect ratio : 16:9
Frame rate mode : Constant
Frame rate : 23.976 (23976/1000) FPS
Color space : YUV
Chroma subsampling : 4:2:0
Bit depth : 8 bits
Scan type : Progressive
Bits/(Pixel*Frame) : 0.050
Stream size : 1.51 GiB (92%)
Writing library : x264 core 152 r2851M ba24899
Encoding settings : cabac=1 / ref=4 / deblock=1:-1:-1 / analyse=0x3:0x113 / me=umh / subme=9 / psy=1 / psy_rd=1.00:0.15 / mixed_ref=1 / me_range=24 / chroma_me=1 / trellis=2 / 8x8dct=1 / cqm=0 / deadzone=21,11 / fast_pskip=1 / chroma_qp_offset=-3 / threads=16 / lookahead_threads=4 / sliced_threads=0 / nr=0 / decimate=1 / interlaced=0 / bluray_compat=0 / constrained_intra=0 / bframes=3 / b_pyramid=2 / b_adapt=2 / b_bias=0 / direct=3 / weightb=1 / open_gop=0 / weightp=2 / keyint=250 / keyint_min=25 / scenecut=40 / intra_refresh=0 / rc_lookahead=50 / rc=2pass / mbtree=1 / bitrate=2500 / ratetol=1.0 / qcomp=0.60 / qpmin=0 / qpmax=69 / qpstep=4 / cplxblur=20.0 / qblur=0.5 / vbv_maxrate=31250 / vbv_bufsize=31250 / nal_hrd=none / filler=0 / ip_ratio=1.40 / aq=3:1.00
Encoded date : UTC 2019-11-08 13:24:27
Tagged date : UTC 2019-11-08 13:24:27
Codec configuration box : avcC

Audio
ID : 2
Format : AAC LC
Format/Info : Advanced Audio Codec Low Complexity
Codec ID : mp4a-40-2
Duration : 1 h 26 min
Duration_LastFrame : -11 ms
Bit rate mode : Constant
Bit rate : 224 kb/s
Channel(s) : 6 channels
Channel layout : C L R Ls Rs LFE
Sampling rate : 48.0 kHz
Frame rate : 46.875 FPS (1024 SPF)
Compression mode : Lossy
Stream size : 139 MiB (8%)
Language : English
Default : Yes
Alternate group : 1
Encoded date : UTC 2019-11-08 13:24:27
Tagged date : UTC 2019-11-08 13:24:27





1 个附件 售价 大小 下载 时间

Crown.For.Christmas.2015.1080p.WEBRip.x264-RARBG.torrent 0 金币 17.12K 147 次 13天前

#1楼
发帖时间:2019-11-08 23:07:59   |   回复数:1
911degrees
隐世仙人♂
非常感谢,谢谢分享
12天前 #2楼
游客组