conanlcg
超级版主

[更 早] [欧美] [喜剧] [WEB-1080P] 辣妹抢银行/啦啦俏娇娃 Sugar.and.Spice.2001.1080p.AMZN.WEBRip.DDP2.0.x264-monkee 6.09GB

-->

帖子完整标题:辣妹抢银行/啦啦俏娇娃 Sugar.and.Spice.2001.1080p.AMZN.WEBRip.DDP2.0.x264-monkee 6.09GB




◎译  名 辣妹抢银行 / 啦啦俏娇娃 / 甜心辣妹 / 辣妹与甜心 / 酸甜苦辣
◎片  名 Sugar & Spice
◎年  代 2001
◎产  地 美国
◎类  别 喜剧 / 犯罪
◎语  言 英语
◎上映日期 2001-01-26(美国)
◎IMDb评分 5.7/10 from 13001 users
◎IMDb链接 https://www.imdb.com/title/tt0186589
◎豆瓣评分 6.2/10 from 378 users
◎豆瓣链接 https://movie.douban.com/subject/1294524/
◎片  长 81 分钟
◎导  演 弗朗辛·麦克杜格尔 Francine McDougall
◎编  剧 曼迪·尼尔森 Mandy Nelson
◎主  演 玛丽·谢尔顿 Marley Shelton
      詹姆斯·麦斯登 James Marsden
      米娜·苏瓦丽 Mena Suvari
      玛拉·索科洛芙 Marla Sokoloff
      梅利莎·乔治 Melissa George
      雷切尔·布兰卡德 Rachel Blanchard
      亚历山德拉·霍尔登 Alexandra Holden
      萨拉·马什 Sara Marsh
      肖恩·杨 Sean Young
      W·厄尔·布朗 W. Earl Brown


◎标  签 喜剧 | 美国 | 青春 | 美国电影 | 2001 | 犯罪 | 欧美电影 | JamesMarsden

◎简  介

  林肯高中是一所云集了各种新新人类的学校,也许在这个飞速发展的21世纪,刻苦学习早已不是首要任务,时尚男女们更热衷于享受稍纵即逝的青春生活。
  戴安娜·维斯顿(玛丽·谢尔顿 Marley Shelton 饰)、汉娜·沃德(Rachel Blanchard 饰)、肯萨斯·希尔(Mena Suvari 饰)、露茜·维特曼(Sara Marsh 饰)和克洛·米勒(Melissa George 饰)是林肯高中的啦啦队员,同时也是引领学校时尚的风向标。她们性格各异,但是团结一心,是啦啦队不可或缺的中坚力量。然而,某天戴安娜和球队的四分卫杰克·巴克利特(James Marsden 饰)擦枪走火,搞大了肚子。为了帮助被学校和家长赶出去的好友,其余四个姐妹轮流照顾戴安娜,甚至还打起抢银行的主意……
Video
ID : 1
Format : AVC
Format/Info : Advanced Video Codec
Format profile : [email protected]
Format settings : CABAC / 4 Ref Frames
Format settings, CABAC : Yes
Format settings, Reference frames : 4 frames
Codec ID : V_MPEG4/ISO/AVC
Duration : 1 h 20 min
Bit rate mode : Variable
Bit rate : 10.5 Mb/s
Maximum bit rate : 15.0 Mb/s
Width : 1 920 pixels
Height : 816 pixels
Display aspect ratio : 2.35:1
Frame rate mode : Constant
Frame rate : 23.976 (24000/1001) FPS
Color space : YUV
Chroma subsampling : 4:2:0
Bit depth : 8 bits
Scan type : Progressive
Bits/(Pixel*Frame) : 0.281
Stream size : 5.96 GiB (98%)
Writing library : x264 core 148 r2623 d5b2374
Encoding settings : cabac=1 / ref=4 / deblock=1:-1:-1 / analyse=0x3:0x133 / me=umh / subme=9 / psy=1 / psy_rd=1.00:0.15 / mixed_ref=1 / me_range=24 / chroma_me=1 / trellis=2 / 8x8dct=1 / cqm=0 / deadzone=21,11 / fast_pskip=1 / chroma_qp_offset=-3 / threads=25 / lookahead_threads=4 / sliced_threads=0 / nr=150 / decimate=1 / interlaced=0 / bluray_compat=0 / constrained_intra=0 / bframes=8 / b_pyramid=2 / b_adapt=2 / b_bias=0 / direct=3 / weightb=1 / open_gop=0 / weightp=2 / keyint=120 / keyint_min=61 / scenecut=0 / intra_refresh=0 / rc_lookahead=120 / rc=crf / mbtree=1 / crf=18.0 / qcomp=0.60 / qpmin=0 / qpmax=69 / qpstep=4 / vbv_maxrate=15000 / vbv_bufsize=31250 / crf_max=0.0 / nal_hrd=vbr / filler=0 / ip_ratio=1.40 / aq=3:1.00
Default : Yes
Forced : No
Color range : Limited
Color primaries : BT.709
Transfer characteristics : BT.709
Matrix coefficients : BT.709

Audio
ID : 2
Format : E-AC-3
Format/Info : Enhanced AC-3
Commercial name : Dolby Digital Plus
Codec ID : A_EAC3
Duration : 1 h 20 min
Bit rate mode : Constant
Bit rate : 224 kb/s
Channel(s) : 2 channels
Channel layout : L R
Sampling rate : 48.0 kHz
Frame rate : 31.250 FPS (1536 SPF)
Compression mode : Lossy
Stream size : 130 MiB (2%)
Language : English
Service kind : Complete Main
Default : Yes
Forced : No

Text
ID : 3
Format : UTF-8
Codec ID : S_TEXT/UTF8
Codec ID/Info : UTF-8 Plain Text
Duration : 1 h 18 min
Bit rate : 78 b/s
Count of elements : 1622
Stream size : 45.4 KiB (0%)
Language : English
Default : No
Forced : No





1 个附件 售价 大小 下载 时间

Sugar.and.Spice.2001.1080p.AMZN.WEBRip.DDP2.0.x264-monkee.torrent 0 金币 61.41K 266 次 13天前

#1楼
发帖时间:2019-11-09 05:00:10   |   回复数:1
911degrees
隐世仙人♂
非常感谢,谢谢分享
12天前 #2楼
游客组