conanlcg
超级版主

[更 早] [欧美] [喜剧] [WEB-1080P] 放电无罪/仲夏夜春梦 One.Night.at.McCools.2001.1080p.AMZN.WEBRip.DDP5.1.x264-monkee 9.49GB

-->

帖子完整标题:放电无罪/仲夏夜春梦 One.Night.at.McCools.2001.1080p.AMZN.WEBRip.DDP5.1.x264-monkee 9.49GB




◎译  名 放电无罪 / 仲夏夜春梦 / 麦克库之夜
◎片  名 One Night at McCool's
◎年  代 2001
◎产  地 美国
◎类  别 喜剧 / 犯罪
◎语  言 英语 / 西班牙语
◎上映日期 2001-04-27
◎IMDb评分 6.1/10 from 27704 users
◎IMDb链接 https://www.imdb.com/title/tt0203755
◎豆瓣评分 7.1/10 from 1345 users
◎豆瓣链接 https://movie.douban.com/subject/1305072/
◎片  长 93 分钟
◎导  演 Harald Zwart
◎编  剧 Stan Seidel
◎主  演 Matt Dillon
      Liv Tyler
      Michael Douglas
      John Goodman
      Richard Jenkins


◎标  签 美国 | 喜剧 | 黑色幽默 | 丽芙·泰勒 | 犯罪 | 美国电影 | LivTyler | Liv.Tyler

◎简  介

  故事发生在一间名为“麦克库”的酒吧中,酒保蓝迪(马特·狄龙 Matt Dillon 饰)、警探德林(约翰·古德曼 John Goodman 饰)和律师卡尔(Mary Jo Smith 饰)是酒吧的常客。在来来往往的人群中,已经再无什么亮点能够吸引这三个“老玩家”的注意了,不过,一个名为朱尔(丽芙·泰勒 Liv Tyler 饰)的性感美女的出现改变了这一局面。
  蓝迪、德林和卡尔都为朱尔的美貌所倾倒,她身上那种致命的诱惑力令三个大男人神魂颠倒。为了得到朱尔的亲睐,三个旗鼓相当的男人之间展开了一场“恶战”,然而,就在“战争”白热化之时,三人才渐渐发现,朱尔并非表面上看起来的那样简单,在她的内心中,隐藏了一个既危险又惊人的秘密。
Video
ID : 1
Format : AVC
Format/Info : Advanced Video Codec
Format profile : [email protected]
Format settings : CABAC / 4 Ref Frames
Format settings, CABAC : Yes
Format settings, Reference frames : 4 frames
Codec ID : V_MPEG4/ISO/AVC
Duration : 1 h 33 min
Bit rate : 14.0 Mb/s
Width : 1 920 pixels
Height : 1 080 pixels
Display aspect ratio : 16:9
Frame rate mode : Constant
Frame rate : 23.976 (24000/1001) FPS
Color space : YUV
Chroma subsampling : 4:2:0
Bit depth : 8 bits
Scan type : Progressive
Bits/(Pixel*Frame) : 0.281
Stream size : 9.08 GiB (96%)
Default : Yes
Forced : No
Color range : Limited
Color primaries : BT.709
Transfer characteristics : BT.709
Matrix coefficients : BT.709

Audio
ID : 2
Format : E-AC-3
Format/Info : Enhanced AC-3
Commercial name : Dolby Digital Plus
Codec ID : A_EAC3
Duration : 1 h 33 min
Bit rate mode : Constant
Bit rate : 640 kb/s
Channel(s) : 6 channels
Channel layout : L R C LFE Ls Rs
Sampling rate : 48.0 kHz
Frame rate : 31.250 FPS (1536 SPF)
Compression mode : Lossy
Stream size : 426 MiB (4%)
Language : English
Service kind : Complete Main
Default : Yes
Forced : No





1 个附件 售价 大小 下载 时间

One.Night.at.McCools.2001.1080p.AMZN.WEBRip.DDP5.1.x264-monkee.torrent 0 金币 48.03K 518 次 12天前

#1楼
发帖时间:2019-11-09 05:08:38   |   回复数:1
911degrees
隐世仙人♂
非常感谢,谢谢分享
12天前 #2楼
游客组