conanlcg
超级版主

[2006] [欧美] [其他] [WEB-1080P] 尼尔·杨:金子心 Neil.Young.Heart.of.Gold.2006.1080p.AMZN.WEBRip.DDP5.1.x264-SiGMA 10.77

-->

帖子完整标题:尼尔·杨:金子心 Neil.Young.Heart.of.Gold.2006.1080p.AMZN.WEBRip.DDP5.1.x264-SiGMA 10.77GB




◎译  名 尼尔·杨:金子心
◎片  名 Neil Young: Heart of Gold
◎年  代 2006
◎产  地 美国
◎类  别 纪录片 / 音乐
◎语  言 英语
◎上映日期 2006-02-17
◎IMDb评分 7.7/10 from 2720 users
◎IMDb链接 https://www.imdb.com/title/tt0473692
◎豆瓣评分 8.8/10 from 609 users
◎豆瓣链接 https://movie.douban.com/subject/1479737/
◎片  长 103 分钟
◎导  演 乔纳森·戴米 Jonathan Demme
◎主  演 Grant Boatwright
      Larry Cragg
      Anthony Crawford


◎标  签 纪录片 | NeilYoung | 音乐 | 美国 | 2006 | 美国电影 | 紀錄片 | music

◎简  介

  Neil Young演唱会纪录片
Video
ID : 1
Format : AVC
Format/Info : Advanced Video Codec
Format profile : [email protected]
Format settings : CABAC / 4 Ref Frames
Format settings, CABAC : Yes
Format settings, Reference frames : 4 frames
Codec ID : V_MPEG4/ISO/AVC
Duration : 1 h 43 min
Bit rate mode : Variable
Bit rate : 14.2 Mb/s
Maximum bit rate : 15.0 Mb/s
Width : 1 920 pixels
Height : 1 080 pixels
Display aspect ratio : 16:9
Frame rate mode : Constant
Frame rate : 23.976 (24000/1001) FPS
Color space : YUV
Chroma subsampling : 4:2:0
Bit depth : 8 bits
Scan type : Progressive
Bits/(Pixel*Frame) : 0.287
Stream size : 10.3 GiB (96%)
Writing library : x264 core 148 r2623 d5b2374
Encoding settings : cabac=1 / ref=4 / deblock=1:-1:-1 / analyse=0x3:0x133 / me=umh / subme=9 / psy=1 / psy_rd=1.00:0.15 / mixed_ref=1 / me_range=24 / chroma_me=1 / trellis=2 / 8x8dct=1 / cqm=0 / deadzone=21,11 / fast_pskip=1 / chroma_qp_offset=-3 / threads=34 / lookahead_threads=5 / sliced_threads=0 / nr=150 / decimate=1 / interlaced=0 / bluray_compat=0 / constrained_intra=0 / bframes=8 / b_pyramid=2 / b_adapt=2 / b_bias=0 / direct=3 / weightb=1 / open_gop=0 / weightp=2 / keyint=120 / keyint_min=61 / scenecut=0 / intra_refresh=0 / rc_lookahead=120 / rc=crf / mbtree=1 / crf=18.0 / qcomp=0.60 / qpmin=0 / qpmax=69 / qpstep=4 / vbv_maxrate=15000 / vbv_bufsize=31250 / crf_max=0.0 / nal_hrd=vbr / filler=0 / ip_ratio=1.40 / aq=3:1.00
Default : Yes
Forced : No
Color range : Limited
Color primaries : BT.709
Transfer characteristics : BT.709
Matrix coefficients : BT.709

Audio
ID : 2
Format : E-AC-3
Format/Info : Enhanced AC-3
Commercial name : Dolby Digital Plus
Codec ID : A_EAC3
Duration : 1 h 43 min
Bit rate mode : Constant
Bit rate : 640 kb/s
Channel(s) : 6 channels
Channel layout : L R C LFE Ls Rs
Sampling rate : 48.0 kHz
Frame rate : 31.250 FPS (1536 SPF)
Compression mode : Lossy
Stream size : 474 MiB (4%)
Language : English
Service kind : Complete Main
Default : Yes
Forced : No

Text
ID : 3
Format : UTF-8
Codec ID : S_TEXT/UTF8
Codec ID/Info : UTF-8 Plain Text
Duration : 1 h 41 min
Bit rate : 41 b/s
Count of elements : 1017
Stream size : 30.9 KiB (0%)
Title : English (SDH)
Language : English
Default : No
Forced : No





1 个附件 售价 大小 下载 时间

Neil.Young.Heart.of.Gold.2006.1080p.AMZN.WEBRip.DDP5.1.x264-SiGMA.torrent 0 金币 54.42K 1008 次 12天前

#1楼
发帖时间:2019-11-09 05:09:49   |   回复数:3
xibuwangshi
无名小卒
感谢分享
12天前 #2楼
xibuwangshi
无名小卒
:找了很久、感谢分享。
12天前 #3楼
911degrees
隐世仙人♂
非常感谢,谢谢分享
12天前 #4楼
游客组