coor
武林高手

[2018] [欧美] [惊悚] [WEB-1080P] 夜总会的秘密 Nightclub.Secrets.2018.1080p.WEBRip.x264-RARBG 1.64GB

-->

帖子完整标题:夜总会的秘密 Nightclub.Secrets.2018.1080p.WEBRip.x264-RARBG 1.64GB




◎译  名 夜总会的秘密
◎片  名 Nightclub Secrets
◎年  代 2018
◎产  地 美国
◎类  别 惊悚
◎语  言 英语
◎上映日期 2018-06-02(美国)
◎IMDb评分 4.7/10 from 283 users
◎IMDb链接 http://www.imdb.com/title/tt7440524
◎豆瓣评分 0/10 from 0 users
◎豆瓣链接 https://movie.douban.com/subject/30248864/
◎片  长 90分钟
◎导  演 乔·梅内德斯 Joe Menendez
◎编  剧 布赖恩·莱德 Brian Leider / Nick Marshall
◎主  演 Kate Mansi
      蕾切尔·亨德里克斯 Rachel Hendrix
      加里·维克斯 Gary Weeks
      Nick Marshall
      Josh Ventura
      吉吉·赖斯 Gigi Rice
      Chuti Tiu
      奥斯卡·托瑞 Oscar Torre
      Ilana Guralnik
      杰西卡·扬 Jessica Young
      Madison Bailey


◎标  签 忍无可忍,弃 | 2018

◎简  介

  When Zoe's sister, Rachel, ends up dead from an apparent suicide, Zoe takes it upon herself to find out the truth. Through Rachel's diary Zoe is able to follow a trail to a world of nightclubs and the secrets they hold.
Video
ID : 1
Format : AVC
Format/Info : Advanced Video Codec
Format profile : [email protected]
Format settings : CABAC / 4 Ref Frames
Format settings, CABAC : Yes
Format settings, Reference frames : 4 frames
Codec ID : avc1
Codec ID/Info : Advanced Video Coding
Duration : 1 h 26 min
Bit rate : 2 500 kb/s
Width : 1 920 pixels
Height : 1 080 pixels
Display aspect ratio : 16:9
Frame rate mode : Constant
Frame rate : 23.976 (23976/1000) FPS
Color space : YUV
Chroma subsampling : 4:2:0
Bit depth : 8 bits
Scan type : Progressive
Bits/(Pixel*Frame) : 0.050
Stream size : 1.50 GiB (92%)
Writing library : x264 core 152 r2851M ba24899
Encoding settings : cabac=1 / ref=4 / deblock=1:-1:-1 / analyse=0x3:0x113 / me=umh / subme=9 / psy=1 / psy_rd=1.00:0.15 / mixed_ref=1 / me_range=24 / chroma_me=1 / trellis=2 / 8x8dct=1 / cqm=0 / deadzone=21,11 / fast_pskip=1 / chroma_qp_offset=-3 / threads=16 / lookahead_threads=4 / sliced_threads=0 / nr=0 / decimate=1 / interlaced=0 / bluray_compat=0 / constrained_intra=0 / bframes=3 / b_pyramid=2 / b_adapt=2 / b_bias=0 / direct=3 / weightb=1 / open_gop=0 / weightp=2 / keyint=250 / keyint_min=25 / scenecut=40 / intra_refresh=0 / rc_lookahead=50 / rc=2pass / mbtree=1 / bitrate=2500 / ratetol=1.0 / qcomp=0.60 / qpmin=0 / qpmax=69 / qpstep=4 / cplxblur=20.0 / qblur=0.5 / vbv_maxrate=31250 / vbv_bufsize=31250 / nal_hrd=none / filler=0 / ip_ratio=1.40 / aq=3:1.00
Encoded date : UTC 2019-12-02 10:04:01
Tagged date : UTC 2019-12-02 10:04:01
Codec configuration box : avcC

Audio
ID : 2
Format : AAC LC
Format/Info : Advanced Audio Codec Low Complexity
Codec ID : mp4a-40-2
Duration : 1 h 26 min
Duration_LastFrame : -11 ms
Bit rate mode : Constant
Bit rate : 224 kb/s
Channel(s) : 6 channels
Channel layout : C L R Ls Rs LFE
Sampling rate : 48.0 kHz
Frame rate : 46.875 FPS (1024 SPF)
Compression mode : Lossy
Stream size : 138 MiB (8%)
Language : English
Default : Yes
Alternate group : 1
Encoded date : UTC 2019-12-02 10:04:01
Tagged date : UTC 2019-12-02 10:04:01





1 个附件 售价 大小 下载 时间

Nightclub.Secrets.2018.1080p.WEBRip.x264-RARBG.torrent 0 金币 17.07K 434 次 11天前

#1楼
发帖时间:2019-12-02 20:54:35   |   回复数:2
911degrees
隐世仙人♂
非常感谢,谢谢分享
10天前 #2楼
blj2007
一派掌门
感谢分享,辛苦啦
10天前 #3楼
游客组