coor
武林高手

[更 早] [欧美] [剧情] [WEB-1080P] 沉默的陷阱/无声的陷阱 Silent.Fall.1994.1080p.AMZN.WEBRip.DDP2.0.x264-iKA 7.03GB

-->

帖子完整标题:沉默的陷阱/无声的陷阱 Silent.Fall.1994.1080p.AMZN.WEBRip.DDP2.0.x264-iKA 7.03GB




◎译  名 沉默的陷阱 / 无声的陷阱
◎片  名 Silent Fall
◎年  代 1994
◎产  地 美国
◎类  别 剧情 / 惊栗 / 悬念
◎语  言 英语
◎上映日期 1994-10-28(美国)
◎IMDb评分 6.0/10 from 3346 users
◎IMDb链接 https://www.imdb.com/title/tt0111187
◎豆瓣评分 7.5/10 from 35 users
◎豆瓣链接 https://movie.douban.com/subject/1301248/
◎片  长 101分钟
◎导  演 Bruce Beresford
◎编  剧 Akiva Goldsman
◎主  演 理查德·德莱弗斯 Richard Dreyfuss
      琳达·汉密尔顿 Linda Hamilton
      约翰·利思戈 John Lithgow
      J·T·沃尔什 J.T. Walsh
      本·福克纳 Ben Faulkner
      丽芙·泰勒 Liv Tyler
      扎恩·迈克拉农 Zahn McClarnon
      Brandon Stouffer
      Treva Moniik King
      John McGee Jr.
      Ron Tucker
      Catherine Shaffner
      Heather M. Bomba
      Marianne E. Bomba
      Jane Beard


◎标  签 惊悚 | 美国电影 | 心理 | 悬疑 | 电影 | 丽芙泰勒 | SonychenReviews | 一流

◎简  介

  理查德·德赖弗斯饰演一名对自闭症儿童很有办法的心理医生杰克,当他在事业和婚姻上都遭遇低潮时,却受邀协助调查一宗离奇的谋杀案。一对夫妇血腥死亡,只有两名目击证人,患自闭症的九岁儿子,以及防卫性极强的十八岁女儿。杰克以他独特的治疗手法跟男孩渐建立关系,也使得案情开始露出头绪,不料却将他们带向了死亡边缘。

◎获奖情况

  第45届柏林国际电影节(1995)
  金熊奖 最佳影片(提名) 布鲁斯·贝尔斯福德
Video
ID : 1
Format : AVC
Format/Info : Advanced Video Codec
Format profile : [email protected]
Format settings : CABAC / 4 Ref Frames
Format settings, CABAC : Yes
Format settings, Reference frames : 4 frames
Codec ID : V_MPEG4/ISO/AVC
Duration : 1 h 40 min
Bit rate mode : Constant
Bit rate : 10 000 kb/s
Width : 1 920 pixels
Height : 1 040 pixels
Display aspect ratio : 1.85:1
Frame rate mode : Constant
Frame rate : 23.976 (24000/1001) FPS
Color space : YUV
Chroma subsampling : 4:2:0
Bit depth : 8 bits
Scan type : Progressive
Bits/(Pixel*Frame) : 0.209
Stream size : 6.87 GiB (98%)
Default : Yes
Forced : No
Color range : Limited
Color primaries : BT.709
Transfer characteristics : BT.709
Matrix coefficients : BT.709

Audio
ID : 2
Format : E-AC-3
Format/Info : Enhanced AC-3
Commercial name : Dolby Digital Plus
Codec ID : A_EAC3
Duration : 1 h 40 min
Bit rate mode : Constant
Bit rate : 224 kb/s
Channel(s) : 2 channels
Channel layout : L R
Sampling rate : 48.0 kHz
Frame rate : 31.250 FPS (1536 SPF)
Compression mode : Lossy
Stream size : 162 MiB (2%)
Language : English
Service kind : Complete Main
Default : Yes
Forced : No

Text
ID : 3
Format : UTF-8
Codec ID : S_TEXT/UTF8
Codec ID/Info : UTF-8 Plain Text
Duration : 1 h 40 min
Bit rate : 54 b/s
Count of elements : 1511
Stream size : 39.9 KiB (0%)
Language : English
Default : No
Forced : No





1 个附件 售价 大小 下载 时间

Silent.Fall.1994.1080p.AMZN.WEBRip.DDP2.0.x264-iKA.torrent 0 金币 35.70K 336 次 11天前

#1楼
发帖时间:2019-12-02 20:58:27   |   回复数:1
911degrees
隐世仙人♂
非常感谢,谢谢分享
10天前 #2楼
游客组