coor
武林高手

[更 早] [其他] [剧情] [WEB-1080P] 蛇皮 Snakeskin Snakeskin.2001.1080p.AMZN.WEBRip.DDP2.0.x264-alfaHD 3.10GB

-->

帖子完整标题:蛇皮 Snakeskin Snakeskin.2001.1080p.AMZN.WEBRip.DDP2.0.x264-alfaHD 3.10GB




◎译  名 
◎片  名 蛇皮 Snakeskin
◎年  代 2001
◎产  地 新西兰
◎类  别 剧情 / 惊悚 / 奇幻 / 冒险
◎语  言 英语
◎上映日期 2001-10-11
◎IMDb评分 5.2/10 from 456 users
◎IMDb链接 https://www.imdb.com/title/tt0244803
◎豆瓣评分 0/10 from 0 users
◎豆瓣链接 https://movie.douban.com/subject/2062851/
◎导  演 Gillian Ashurst
◎编  剧 Gillian Ashurst
◎主  演 Melanie Lynskey
      Boyd Kestner
      Dean O'Gorman
      Oliver Driver
      Taika Cohen


◎标  签 电影 | 新西兰 | DeanO'Gorman | 一字年 | NewZealand紐西蘭.梅兰妮·林斯基 | 2001

◎简  介

  暂无相关剧情介绍
Video
ID : 1
Format : AVC
Format/Info : Advanced Video Codec
Format profile : [email protected]
Format settings : CABAC / 4 Ref Frames
Format settings, CABAC : Yes
Format settings, Reference frames : 4 frames
Codec ID : V_MPEG4/ISO/AVC
Duration : 1 h 29 min
Bit rate mode : Variable
Bit rate : 4 763 kb/s
Maximum bit rate : 15.0 Mb/s
Width : 1 920 pixels
Height : 1 080 pixels
Display aspect ratio : 16:9
Frame rate mode : Constant
Frame rate : 25.000 FPS
Color space : YUV
Chroma subsampling : 4:2:0
Bit depth : 8 bits
Scan type : Progressive
Bits/(Pixel*Frame) : 0.092
Stream size : 2.96 GiB (95%)
Default : Yes
Forced : No
Color range : Limited
Color primaries : BT.709
Transfer characteristics : BT.709
Matrix coefficients : BT.709

Audio
ID : 2
Format : E-AC-3
Format/Info : Enhanced AC-3
Commercial name : Dolby Digital Plus
Codec ID : A_EAC3
Duration : 1 h 29 min
Bit rate mode : Constant
Bit rate : 224 kb/s
Channel(s) : 2 channels
Channel layout : L R
Sampling rate : 48.0 kHz
Frame rate : 31.250 FPS (1536 SPF)
Compression mode : Lossy
Stream size : 143 MiB (4%)
Language : English
Service kind : Complete Main
Default : Yes
Forced : No

Text #1
ID : 3
Format : UTF-8
Codec ID : S_TEXT/UTF8
Codec ID/Info : UTF-8 Plain Text
Duration : 1 h 24 min
Bit rate : 41 b/s
Count of elements : 954
Stream size : 25.6 KiB (0%)
Language : English
Default : No
Forced : No

Text #2
ID : 4
Format : UTF-8
Codec ID : S_TEXT/UTF8
Codec ID/Info : UTF-8 Plain Text
Duration : 1 h 24 min
Bit rate : 52 b/s
Count of elements : 1207
Stream size : 32.3 KiB (0%)
Title : SDH
Language : English
Default : No
Forced : No





1 个附件 售价 大小 下载 时间

Snakeskin.2001.1080p.AMZN.WEBRip.DDP2.0.x264-alfaHD.torrent 0 金币 31.58K 161 次 4天前

#1楼
发帖时间:2019-12-03 12:20:23   |   回复数:3
tanchoohoon
武林盟主
感谢楼主的无私分享
3天前 #2楼
911degrees
隐世仙人♂
非常感谢,谢谢分享
3天前 #3楼
kola13
一派掌门
感谢分享
3天前 #4楼
游客组