coor
武林高手

[2019] [欧美] [科幻] [WEB-1080P] 星际探索/星际任务 Ad.Astra.2019.1080p.WEBRip.x264-RARBG 2.39GB

-->

帖子完整标题:星际探索/星际任务 Ad.Astra.2019.1080p.WEBRip.x264-RARBG 2.39GB




◎译  名 星际探索 / 星际任务(港) / 星际探险 / 星际救援(台)
◎片  名 Ad Astra
◎年  代 2019
◎产  地 美国
◎类  别 科幻 / 悬疑 / 冒险 / 灾难
◎语  言 英语
◎上映日期 2019-08-29(威尼斯电影节) / 2019-09-20(美国) / 2019-12-06(中国大陆)
◎IMDb评分 7.0/10 from 68398 users
◎IMDb链接 https://www.imdb.com/title/tt2935510
◎豆瓣评分 6.8/10 from 4215 users
◎豆瓣链接 https://movie.douban.com/subject/24716039/
◎片  长 124分钟
◎导  演 詹姆士·格雷 James Gray
◎编  剧 詹姆士·格雷 James Gray / 伊森·格罗斯 Ethan Gross
◎主  演 布拉德·皮特 Brad Pitt
      汤米·李·琼斯 Tommy Lee Jones
      鲁丝·内伽 Ruth Negga
      唐纳德·萨瑟兰 Donald Sutherland
      丽芙·泰勒 Liv Tyler
      肖恩·布莱克默 Sean Blakemore
      约翰·芬 John Finn
      杰米·肯尼迪 Jamie Kennedy
      格雷格·布瑞克 Greg Bryk
      吉米·希尔兹 Kimmy Shields
      丽莎·盖伊·汉密尔顿 Lisa Gay Hamilton
      劳恩·迪恩 Loren Dean
      约翰·奥提兹 John Ortiz
      金伯莉·伊丽丝 Kimberly Elise
      丹尼尔·萨乌利 Daniel Sauli
      安妮·麦克代尼尔斯 Anne McDaniels
      艾莉森·瑞德 Alyson Reed
      唐尼·科沙瓦茨 Donnie Keshawarz
      马洛里露 Mallory Low
      希拉·M·洛克哈特 Sheila M. Lockhart


◎标  签 科幻 | 太空 | 宇宙 | 美国 | 2019 | 冒险 | 惊悚 | 星际

◎简  介

  地球上接连出现神秘怪象,科学家发现某种失控的反物质反应正在威胁整个太阳系,人类生存极度堪忧……地球生死攸关之际,天才航天工程师罗伊(布拉德·皮特 饰)被派往外太空,试图揭开谜团拯救人类。这是一场横跨地球、月球、火星、海王星,穿越整个太阳系的硬核冒险,一路危机重重险象环生,罗伊直面爆炸、陨石、月球飙车枪战、神秘生物等意想不到的考验,还找回了失联20年的父亲!当年罗伊的父亲(汤米·李·琼斯 饰)离开地球探寻外星智慧生物,结果任务失败,消失在茫茫宇宙之中。如今父子重逢,罗伊在太空深处发现了不为人知的秘密,渐渐触达所有事件的终极真相……

◎获奖情况

  第76届威尼斯电影节(2019)
  主竞赛单元 金狮奖 (提名) 詹姆斯·格雷
Video
ID : 1
Format : AVC
Format/Info : Advanced Video Codec
Format profile : [email protected]
Format settings : CABAC / 4 Ref Frames
Format settings, CABAC : Yes
Format settings, Reference frames : 4 frames
Codec ID : avc1
Codec ID/Info : Advanced Video Coding
Duration : 2 h 5 min
Bit rate : 2 500 kb/s
Width : 1 920 pixels
Height : 804 pixels
Display aspect ratio : 2.40:1
Frame rate mode : Constant
Frame rate : 23.976 (23976/1000) FPS
Color space : YUV
Chroma subsampling : 4:2:0
Bit depth : 8 bits
Scan type : Progressive
Bits/(Pixel*Frame) : 0.068
Stream size : 2.19 GiB (92%)
Writing library : x264 core 152 r2851M ba24899
Encoding settings : cabac=1 / ref=4 / deblock=1:-1:-1 / analyse=0x3:0x113 / me=umh / subme=9 / psy=1 / psy_rd=1.00:0.15 / mixed_ref=1 / me_range=24 / chroma_me=1 / trellis=2 / 8x8dct=1 / cqm=0 / deadzone=21,11 / fast_pskip=1 / chroma_qp_offset=-3 / threads=32 / lookahead_threads=4 / sliced_threads=0 / nr=0 / decimate=1 / interlaced=0 / bluray_compat=0 / constrained_intra=0 / bframes=3 / b_pyramid=2 / b_adapt=2 / b_bias=0 / direct=3 / weightb=1 / open_gop=0 / weightp=2 / keyint=250 / keyint_min=25 / scenecut=40 / intra_refresh=0 / rc_lookahead=50 / rc=2pass / mbtree=1 / bitrate=2500 / ratetol=1.0 / qcomp=0.60 / qpmin=0 / qpmax=69 / qpstep=4 / cplxblur=20.0 / qblur=0.5 / vbv_maxrate=31250 / vbv_bufsize=31250 / nal_hrd=none / filler=0 / ip_ratio=1.40 / aq=3:1.00
Encoded date : UTC 2019-12-03 07:15:57
Tagged date : UTC 2019-12-03 07:15:57
Codec configuration box : avcC

Audio
ID : 2
Format : AAC LC
Format/Info : Advanced Audio Codec Low Complexity
Codec ID : mp4a-40-2
Duration : 2 h 5 min
Bit rate mode : Constant
Bit rate : 224 kb/s
Channel(s) : 6 channels
Channel layout : C L R Ls Rs LFE
Sampling rate : 48.0 kHz
Frame rate : 46.875 FPS (1024 SPF)
Compression mode : Lossy
Stream size : 201 MiB (8%)
Language : English
Default : Yes
Alternate group : 1
Encoded date : UTC 2019-12-03 07:15:57
Tagged date : UTC 2019-12-03 07:15:57





1 个附件 售价 大小 下载 时间

Ad.Astra.2019.1080p.WEBRip.x264-RARBG.torrent 0 金币 24.45K 6685 次 4天前

#1楼
发帖时间:2019-12-03 16:16:55   |   回复数:4
首席打杂
小有名气
没字幕么?
4天前 #2楼
liyouchai
隐世仙人♂
谢谢楼主分享资源
3天前 #3楼
911degrees
隐世仙人♂
非常感谢,谢谢分享
3天前 #4楼
Squall001
武林高手


字幕拿去不谢


1 个附件 售价 大小 下载 时间

[zmk.pw]Ad.Astra.2019.1080p.WEB-DL.中字.srt 0 金币 88.51K 203 次 3天前

3天前 #5楼
游客组