coor
武林盟主

[2019] [其他] [喜剧] [BD-1080P] 雪人奇缘 Abominable.2019.1080p.BluRay.x264.DTS-HD.MA.7.1-FGT 6.60GB

-->

帖子完整标题:雪人奇缘 Abominable.2019.1080p.BluRay.x264.DTS-HD.MA.7.1-FGT 6.60GB




◎译  名 雪人奇缘 / Everest / 坏坏萌雪怪(台) / 珠穆朗玛 / 长毛雪宝(港)
◎片  名 Abominable
◎年  代 2019
◎产  地 美国 / 中国大陆
◎类  别 喜剧 / 动画 / 冒险
◎语  言 英语
◎上映日期 2019-09-07(多伦多电影节) / 2019-09-27(美国) / 2019-10-01(中国大陆)
◎IMDb评分 7.1/10 from 6969 users
◎IMDb链接 https://www.imdb.com/title/tt6324278
◎豆瓣评分 7.6/10 from 12137 users
◎豆瓣链接 https://movie.douban.com/subject/26929010/
◎片  长 97分钟
◎导  演 吉尔·卡尔顿 Jill Culton / 托德·维尔德曼 Todd Wilderman
◎编  剧 吉尔·卡尔顿 Jill Culton
◎主  演 汪可盈 Chloe Bennet
      阿尔伯特·蔡 Albert Tsai
      艾迪·伊扎德 Eddie Izzard
      莎拉·保罗森 Sarah Paulson
      丹增·诺盖·特雷纳 Tenzing Norgay Trainor
      周采芹 Tsai Chin
      张子枫 Zifeng Zhang
      陈飞宇 Feiyu Chen
      何向东 Xiangdong He
      刘风 Feng Liu
      万茜 Qian Wan
      蔡明 Ming Cai


◎标  签 动画 | 东方梦工厂 | 2019 | 温情 | 冒险 | 美国 | 喜剧 | 中国大陆

◎简  介

  珠穆朗玛峰的雪人是传说吗?不是!不仅不是传说,它还拥有令人着迷的魔力!少女小艺在天台上目睹了雪人大毛即将被抓的惨况,决定亲自护送大毛回家,她的小伙伴阿俊和鹏鹏也加入了护送队伍。一路上冒险小分队路经了千岛湖、黄山、乐山大佛等著名的中国景点,雪人大毛为了躲避抓捕者,也逐一展现了自己神奇的魔力。巨大化的蒲公英,一秒变大的蓝莓,油菜花海浪,还有什么是雪人大毛的魔力做不到的?而抓捕者也早已在他们的目的地珠峰等待着冒险小分队步入早已设好的圈套…
Video
ID : 1
Format : AVC
Format/Info : Advanced Video Codec
Format profile : [email protected]
Format settings : CABAC / 4 Ref Frames
Format settings, CABAC : Yes
Format settings, Reference frames : 4 frames
Codec ID : V_MPEG4/ISO/AVC
Duration : 1 h 37 min
Bit rate : 5 796 kb/s
Width : 1 920 pixels
Height : 1 040 pixels
Display aspect ratio : 1.85:1
Frame rate mode : Constant
Frame rate : 23.976 (24000/1001) FPS
Color space : YUV
Chroma subsampling : 4:2:0
Bit depth : 8 bits
Scan type : Progressive
Bits/(Pixel*Frame) : 0.121
Stream size : 3.94 GiB (60%)
Title : Abominable.2019.1080p.BluRay.x264.DTS-HD.MA.7.1-FGT
Writing library : x264 core 158 r2988 7817004
Encoding settings : cabac=1 / ref=4 / deblock=1:1:1 / analyse=0x3:0x113 / me=umh / subme=8 / psy=1 / psy_rd=0.40:0.00 / mixed_ref=1 / me_range=16 / chroma_me=1 / trellis=1 / 8x8dct=1 / cqm=0 / deadzone=21,11 / fast_pskip=1 / chroma_qp_offset=-2 / threads=32 / lookahead_threads=5 / sliced_threads=0 / nr=0 / decimate=1 / interlaced=0 / bluray_compat=0 / constrained_intra=0 / bframes=5 / b_pyramid=2 / b_adapt=1 / b_bias=0 / direct=3 / weightb=1 / open_gop=0 / weightp=2 / keyint=250 / keyint_min=23 / scenecut=40 / intra_refresh=0 / rc_lookahead=50 / rc=2pass / mbtree=1 / bitrate=5796 / ratetol=1.0 / qcomp=0.60 / qpmin=0 / qpmax=69 / qpstep=4 / cplxblur=20.0 / qblur=0.5 / ip_ratio=1.40 / aq=1:0.60
Language : English
Default : Yes
Forced : No

Audio
ID : 2
Format : DTS XLL
Format/Info : Digital Theater Systems
Commercial name : DTS-HD Master Audio
Codec ID : A_DTS
Duration : 1 h 37 min
Bit rate mode : Variable
Bit rate : 3 903 kb/s
Channel(s) : 8 channels
Channel layout : C L R LFE Lb Rb Lss Rss
Sampling rate : 48.0 kHz
Frame rate : 93.750 FPS (512 SPF)
Bit depth : 24 bits
Compression mode : Lossless
Stream size : 2.65 GiB (40%)
Title : Abominable.2019.1080p.BluRay.x264.DTS-HD.MA.7.1-FGT
Language : English
Default : Yes
Forced : No

Text #1
ID : 3
Format : UTF-8
Codec ID : S_TEXT/UTF8
Codec ID/Info : UTF-8 Plain Text
Duration : 1 h 25 min
Bit rate : 45 b/s
Count of elements : 1091
Stream size : 28.6 KiB (0%)
Title : English-SRT
Language : English
Default : Yes
Forced : No

Text #2
ID : 4
Format : PGS
Muxing mode : zlib
Codec ID : S_HDMV/PGS
Codec ID/Info : Picture based subtitle format used on BDs/HD-DVDs
Duration : 1 h 35 min
Bit rate : 39.0 kb/s
Count of elements : 3094
Stream size : 26.7 MiB (0%)
Title : English-PGS
Language : English
Default : No
Forced : No





1 个附件 售价 大小 下载 时间

Abominable.2019.1080p.BluRay.x264.DTS-HD.MA.7.1-FGT.torrent 0 金币 33.51K 1967 次 1月前

#1楼
发帖时间:2019-12-07 21:39:19   |   回复数:2
liyouchai
隐世仙人♂
谢谢楼主分享资源
1月前 #2楼
911degrees
隐世仙人♂
非常感谢,谢谢分享
1月前 #3楼
游客组