coor
一代宗师

[2013] [欧美] [BD-720P] 静物 Still.Life.2013.SHORT.720p.BluRay.x264-BiPOLAR 1.09GB

-->

帖子完整标题:静物 Still.Life.2013.SHORT.720p.BluRay.x264-BiPOLAR 1.09GB




◎译  名 静物
◎片  名 Nature morte
◎年  代 2013
◎产  地 美国
◎上映日期 2013(美国)
◎IMDb评分 5.4/10 from 7 users
◎IMDb链接 https://www.imdb.com/title/tt4527430
◎豆瓣评分 0/10 from 0 users
◎豆瓣链接 https://movie.douban.com/subject/27149773/
◎片  长 28分钟
◎导  演 吕西安·卡斯坦因-泰勒 Lucien Castaing-Taylor / 维瑞娜·帕拉韦尔 Verena Paravel

◎简  介

  暂无相关剧情介绍
Video
ID : 1
Format : AVC
Format/Info : Advanced Video Codec
Format profile : [email protected]
Format settings : CABAC / 5 Ref Frames
Format settings, CABAC : Yes
Format settings, Reference frames : 5 frames
Codec ID : V_MPEG4/ISO/AVC
Duration : 29 min 9 s
Bit rate : 4 921 kb/s
Width : 1 280 pixels
Height : 720 pixels
Display aspect ratio : 16:9
Frame rate mode : Constant
Frame rate : 24.000 FPS
Color space : YUV
Chroma subsampling : 4:2:0
Bit depth : 8 bits
Scan type : Progressive
Bits/(Pixel*Frame) : 0.222
Stream size : 1.00 GiB (92%)
Writing library : x264 core 157 r2969 d4099dd
Encoding settings : cabac=1 / ref=5 / deblock=1:-3:-3 / analyse=0x3:0x133 / me=umh / subme=9 / psy=1 / psy_rd=1.00:0.00 / mixed_ref=1 / me_range=16 / chroma_me=1 / trellis=2 / 8x8dct=1 / cqm=0 / deadzone=21,11 / fast_pskip=0 / chroma_qp_offset=-2 / threads=18 / lookahead_threads=1 / sliced_threads=0 / nr=0 / decimate=1 / interlaced=0 / bluray_compat=0 / constrained_intra=0 / bframes=3 / b_pyramid=2 / b_adapt=1 / b_bias=0 / direct=3 / weightb=1 / open_gop=0 / weightp=2 / keyint=240 / keyint_min=24 / scenecut=40 / intra_refresh=0 / rc_lookahead=50 / rc=2pass / mbtree=1 / bitrate=4921 / ratetol=1.0 / qcomp=0.60 / qpmin=0 / qpmax=69 / qpstep=4 / cplxblur=20.0 / qblur=0.5 / ip_ratio=1.40 / aq=1:1.00
Language : English
Default : Yes
Forced : No

Audio
ID : 2
Format : FLAC
Format/Info : Free Lossless Audio Codec
Codec ID : A_FLAC
Duration : 29 min 9 s
Bit rate mode : Variable
Bit rate : 427 kb/s
Channel(s) : 2 channels
Channel layout : L R
Sampling rate : 48.0 kHz
Frame rate : 11.719 FPS (4096 SPF)
Bit depth : 16 bits
Compression mode : Lossless
Stream size : 89.1 MiB (8%)
Writing library : libFLAC 1.2.1 (UTC 2007-09-17)
Language : English
Default : Yes
Forced : No

Menu
00:00:00.000 : en:00:00:00.000
00:14:31.500 : en:00:14:31.500





1 个附件 售价 大小 下载 时间

Still.Life.2013.SHORT.720p.BluRay.x264-BiPOLAR.torrent 0 金币 11.51K 168 次 7月前

#1楼
发帖时间:2020-02-14 17:42:32   |   回复数:1
911degrees
隐世仙人♂
非常感谢,谢谢分享
7月前 #2楼
游客组