coor
一代宗师

[2018] [其他] [剧情] [BD-1080P] 红色/红日蚀 Rojo.2018.1080p.BluRay.x264-USURY 7.94GB

-->

帖子完整标题:红色/红日蚀 Rojo.2018.1080p.BluRay.x264-USURY 7.94GB




◎译  名 红色 / 红日蚀(豆友译名) / 罗霍
◎片  名 Rojo
◎年  代 2018
◎产  地 阿根廷 / 巴西 / 德国 / 法国 / 荷兰
◎类  别 剧情
◎语  言 西班牙语
◎上映日期 2018-09-10(多伦多电影节)
◎IMDb评分 6.5/10 from 1047 users
◎IMDb链接 https://www.imdb.com/title/tt8956390
◎豆瓣评分 6.4/10 from 115 users
◎豆瓣链接 https://movie.douban.com/subject/26890358/
◎片  长 109分钟
◎导  演 本哈明·奈斯塔特 Benjamín Naishtat
◎编  剧 本哈明·奈斯塔特 Benjamín Naishtat
◎主  演 阿尔佛莱德·卡斯特罗 Alfredo Castro
      达里奥·格兰迪内蒂 Darío Grandinetti
      安德丽娅·弗里杰里奥 Andrea Frigerio


◎标  签 阿根廷 | 2018 | 剧情 | 阿根廷电影 | 犯罪 | 多伦多电影节 | Benjamín_Naishtat | 社会现实

◎简  介

  70年代中期,小镇的餐馆内,一个陌生人毫无理由地攻击了当地有名的律师。居民帮助律师并对陌生人严厉指责。不久后,陌生人又一次遇到了律师以及他的妻子,并展开复仇,律师该何去何从?本片荣获2018年圣塞巴斯蒂安电影节多项大奖。

◎获奖情况

  第43届多伦多国际电影节(2018)
  站台奖(提名) 本哈明·奈斯塔特

  第48届鹿特丹国际电影节(2019)
  KNF奖(提名) 本哈明·奈斯塔特

  第66届圣塞巴斯蒂安国际电影节(2018)
  金贝壳奖(提名) 本哈明·奈斯塔特
  最佳导演银贝壳奖 本哈明·奈斯塔特
  最佳男演员银贝壳奖 达里奥·格兰迪内蒂
  最佳摄影 佩德罗·索特罗
Video
ID : 1
Format : AVC
Format/Info : Advanced Video Codec
Format profile : [email protected]
Format settings : CABAC / 4 Ref Frames
Format settings, CABAC : Yes
Format settings, Reference frames : 4 frames
Codec ID : V_MPEG4/ISO/AVC
Duration : 1 h 49 min
Bit rate : 8 882 kb/s
Width : 1 920 pixels
Height : 1 040 pixels
Display aspect ratio : 1.85:1
Frame rate mode : Constant
Frame rate : 24.000 FPS
Color space : YUV
Chroma subsampling : 4:2:0
Bit depth : 8 bits
Scan type : Progressive
Bits/(Pixel*Frame) : 0.185
Stream size : 6.79 GiB (85%)
Writing library : x264 core 157 r2969 d4099dd
Encoding settings : cabac=1 / ref=4 / deblock=1:-3:-3 / analyse=0x3:0x133 / me=umh / subme=9 / psy=1 / psy_rd=1.00:0.00 / mixed_ref=1 / me_range=16 / chroma_me=1 / trellis=2 / 8x8dct=1 / cqm=0 / deadzone=21,11 / fast_pskip=0 / chroma_qp_offset=-2 / threads=18 / lookahead_threads=1 / sliced_threads=0 / nr=0 / decimate=1 / interlaced=0 / bluray_compat=0 / constrained_intra=0 / bframes=3 / b_pyramid=2 / b_adapt=1 / b_bias=0 / direct=3 / weightb=1 / open_gop=0 / weightp=2 / keyint=240 / keyint_min=24 / scenecut=40 / intra_refresh=0 / rc_lookahead=50 / rc=2pass / mbtree=1 / bitrate=8882 / ratetol=1.0 / qcomp=0.60 / qpmin=0 / qpmax=69 / qpstep=4 / cplxblur=20.0 / qblur=0.5 / ip_ratio=1.40 / aq=1:1.00
Language : English
Default : Yes
Forced : No

Audio
ID : 2
Format : DTS
Format/Info : Digital Theater Systems
Codec ID : A_DTS
Duration : 1 h 49 min
Bit rate mode : Constant
Bit rate : 1 509 kb/s
Channel(s) : 6 channels
Channel layout : C L R Ls Rs LFE
Sampling rate : 48.0 kHz
Frame rate : 93.750 FPS (512 SPF)
Bit depth : 24 bits
Compression mode : Lossy
Stream size : 1.15 GiB (15%)
Language : Spanish
Default : Yes
Forced : No

Text
ID : 3
Format : UTF-8
Codec ID : S_TEXT/UTF8
Codec ID/Info : UTF-8 Plain Text
Duration : 1 h 42 min
Bit rate : 36 b/s
Count of elements : 831
Stream size : 27.0 KiB (0%)
Title : English
Language : English
Default : Yes
Forced : Yes

Menu
00:00:00.000 : en:00:00:00.000
00:11:42.542 : en:00:11:42.542
00:23:39.500 : en:00:23:39.500
00:30:43.875 : en:00:30:43.875
00:38:36.917 : en:00:38:36.917
00:50:59.083 : en:00:50:59.083
00:59:47.500 : en:00:59:47.500
01:07:14.792 : en:01:07:14.792
01:17:14.667 : en:01:17:14.667
01:24:24.875 : en:01:24:24.875
01:30:42.042 : en:01:30:42.042
01:38:56.833 : en:01:38:56.833





1 个附件 售价 大小 下载 时间

Rojo.2018.1080p.BluRay.x264-USURY.torrent 0 金币 40.32K 273 次 12天前

#1楼
发帖时间:2020-02-14 17:46:30   |   回复数:1
911degrees
隐世仙人♂
非常感谢,谢谢分享
12天前 #2楼
游客组