coor
一代宗师

[更 早] [其他] [剧情] [BD-1080P] 亚当的苹果 Adams.Apples.2005.1080p.BluRay.x264-USURY 7.65GB

-->

帖子完整标题:亚当的苹果 Adams.Apples.2005.1080p.BluRay.x264-USURY 7.65GB




◎译  名 亚当的苹果 / Adam's Apples / Adams ?pfel
◎片  名 Adams ?bler
◎年  代 2005
◎产  地 丹麦 / 德国
◎类  别 剧情 / 喜剧 / 犯罪
◎语  言 丹麦语
◎上映日期 2005-04-15(丹麦) / 2006-08-31(德国)
◎IMDb评分 7.8/10 from 43114 users
◎IMDb链接 https://www.imdb.com/title/tt0418455
◎豆瓣评分 8.2/10 from 1827 users
◎豆瓣链接 https://movie.douban.com/subject/1478398/
◎片  长 94 分钟
◎导  演 安诺斯·托马斯·延森 Anders Thomas Jensen
◎编  剧 安诺斯·托马斯·延森 Anders Thomas Jensen
◎主  演 乌尔里奇·汤姆森 Ulrich Thomsen
      麦斯·米科尔森 Mads Mikkelsen
      尼可拉斯·布若 Nicolas Bro
      帕普丽卡·斯汀 Paprika Steen
      尼古拉·雷·卡斯 Nikolaj Lie Kaas
      托马斯·维尔姆·詹森 Tomas Villum Jensen
      Ali Kazim
      Ole Thestrup
      Gyrd L?fquist
      Lars Ranthe
      Peter Reichhardt


◎标  签 丹麦 | 喜剧 | 信仰 | 2005 | 黑色幽默 | 宗教 | 剧情 | 德国

◎简  介

  新纳粹光头党亚当(Ulrich Thomsen 饰)被送往一个偏远的教堂做社会服务,在这里他遇到各色奇怪之人。不过对他来说,最难缠的莫过于虔诚古板的神父伊万(Mads Mikkelsen 马兹?米克尔森 饰)了。桀骜不驯的亚当在伊万面前完全没有办法,作为服务的一部分,亚当选择浇灌苹果树,并与神父约定用秋天收获的果实做苹果派。但是各类天灾人祸不断威胁着苹果的生长,伊万相信这是魔鬼所为,亚当则认为这纯粹是上帝的恶作剧……
  本片荣获2005年欧洲电影奖提名最佳剧本;2006年丹麦影评人奖提名最佳影片、最佳男配角。马兹?米克尔森凭借神父角色赢得祖鲁奖最佳男演员奖。
Video
ID : 1
Format : AVC
Format/Info : Advanced Video Codec
Format profile : [email protected]
Format settings : CABAC / 5 Ref Frames
Format settings, CABAC : Yes
Format settings, Reference frames : 5 frames
Codec ID : V_MPEG4/ISO/AVC
Duration : 1 h 35 min
Bit rate : 10.0 Mb/s
Width : 1 920 pixels
Height : 840 pixels
Display aspect ratio : 2.25:1
Frame rate mode : Constant
Frame rate : 23.976 (24000/1001) FPS
Color space : YUV
Chroma subsampling : 4:2:0
Bit depth : 8 bits
Scan type : Progressive
Bits/(Pixel*Frame) : 0.259
Stream size : 6.65 GiB (87%)
Writing library : x264 core 157 r2969 d4099dd
Encoding settings : cabac=1 / ref=5 / deblock=1:-3:-3 / analyse=0x3:0x133 / me=umh / subme=9 / psy=1 / psy_rd=1.00:0.00 / mixed_ref=1 / me_range=16 / chroma_me=1 / trellis=2 / 8x8dct=1 / cqm=0 / deadzone=21,11 / fast_pskip=0 / chroma_qp_offset=-2 / threads=18 / lookahead_threads=1 / sliced_threads=0 / nr=0 / decimate=1 / interlaced=0 / bluray_compat=0 / constrained_intra=0 / bframes=3 / b_pyramid=2 / b_adapt=1 / b_bias=0 / direct=3 / weightb=1 / open_gop=0 / weightp=2 / keyint=240 / keyint_min=24 / scenecut=40 / intra_refresh=0 / rc_lookahead=50 / rc=2pass / mbtree=1 / bitrate=10015 / ratetol=1.0 / qcomp=0.60 / qpmin=0 / qpmax=69 / qpstep=4 / cplxblur=20.0 / qblur=0.5 / ip_ratio=1.40 / aq=1:1.00
Language : English
Default : Yes
Forced : No

Audio
ID : 2
Format : DTS
Format/Info : Digital Theater Systems
Codec ID : A_DTS
Duration : 1 h 35 min
Bit rate mode : Constant
Bit rate : 1 509 kb/s
Channel(s) : 6 channels
Channel layout : C L R Ls Rs LFE
Sampling rate : 48.0 kHz
Frame rate : 93.750 FPS (512 SPF)
Bit depth : 24 bits
Compression mode : Lossy
Stream size : 1.00 GiB (13%)
Language : Danish
Default : Yes
Forced : No

Text #1
ID : 3
Format : UTF-8
Codec ID : S_TEXT/UTF8
Codec ID/Info : UTF-8 Plain Text
Duration : 1 h 29 min
Bit rate : 44 b/s
Count of elements : 674
Stream size : 29.1 KiB (0%)
Title : English
Language : English
Default : Yes
Forced : Yes

Text #2
ID : 4
Format : UTF-8
Codec ID : S_TEXT/UTF8
Codec ID/Info : UTF-8 Plain Text
Duration : 1 h 33 min
Bit rate : 43 b/s
Count of elements : 726
Stream size : 29.4 KiB (0%)
Title : German
Language : German
Default : No
Forced : No

Menu
00:00:00.000 : en:00:00:00.000
00:08:07.987 : en:00:08:07.987
00:15:20.586 : en:00:15:20.586
00:22:09.662 : en:00:22:09.662
00:31:33.141 : en:00:31:33.141
00:37:48.766 : en:00:37:48.766
00:48:14.433 : en:00:48:14.433
00:57:58.100 : en:00:57:58.100
01:05:00.271 : en:01:05:00.271
01:11:01.632 : en:01:11:01.632
01:19:13.457 : en:01:19:13.457
01:24:46.164 : en:01:24:46.164
01:32:09.357 : en:01:32:09.357





1 个附件 售价 大小 下载 时间

Adams.Apples.2005.1080p.BluRay.x264-USURY.torrent 0 金币 38.88K 476 次 12天前

#1楼
发帖时间:2020-02-14 17:54:32   |   回复数:2
911degrees
隐世仙人♂
非常感谢,谢谢分享
12天前 #2楼
kola13
一派掌门
感谢分享
12天前 #3楼
游客组