coor
一代宗师

[2018] [其他] [剧情] [BD-720P] 地球最后的夜晚 Long.Days.Journey.Into.Night.2018.720p.BluRay.x264-USURY 5.46GB

-->

帖子完整标题:地球最后的夜晚 Long.Days.Journey.Into.Night.2018.720p.BluRay.x264-USURY 5.46GB




◎译  名 Long Day's Journey Into Night
◎片  名 地球最后的夜晚
◎年  代 2018
◎产  地 中国大陆 / 法国
◎类  别 剧情 / 爱情 / 悬疑
◎语  言 贵州方言 / 汉语普通话
◎上映日期 2018-05-15(戛纳电影节) / 2018-12-31(中国大陆)
◎IMDb评分 7.2/10 from 4109 users
◎IMDb链接 https://www.imdb.com/title/tt8185182
◎豆瓣评分 6.9/10 from 171025 users
◎豆瓣链接 https://movie.douban.com/subject/26633257/
◎片  长 138分钟
◎导  演 毕赣 Bi Gan
◎编  剧 毕赣 Bi Gan
◎主  演 汤唯 Wei Tang
      黄觉 Jue Huang
      张艾嘉 Sylvia Chang
      李鸿其 Hong-Chi Lee
      陈永忠 Yongzhong Chen
      罗飞扬 Feiyang Luo
      曾美慧孜 Meihuizi Zeng
      段钧豪 Chun-hao Tuan
      谢理循 Lixun Xie
      齐溪 Xi Qi
      明道 Ming Dow
      龙泽治 Zezhi Long


◎标  签 文艺 | 艺术 | 独立电影 | 中国大陆 | 2018 | 剧情 | 悬疑 | 贵州

◎简  介

  罗紘武(黄觉 饰)因父亲离世再次回到贵州。12年前,好友白猫(李鸿其 饰)被杀,罗紘武在追查凶手左宏元(陈永忠 饰)的过程中,被凶手的情人万绮雯(汤唯 饰)所利用。从此以后,这个神秘的女人构成了他所有的记忆、欲望、信念和梦魇,一段追寻之旅让他发现了被隐藏多年的秘密……

◎获奖情况

  第71届戛纳电影节(2018)
  一种关注单元 一种关注大奖(提名) 毕赣

  第55届台北金马影展(2018)
  金马奖 最佳剧情片(提名)
  金马奖 最佳导演(提名) 毕赣
  金马奖 最佳摄影 董劲松 / 姚宏易 / 大卫·查泽雷
  金马奖 最佳原创配乐 许志远 / 林强
  金马奖 最佳音效 李丹枫 / 司中林

  第66届圣塞巴斯蒂安国际电影节(2018)
  开放电影大奖(提名) 毕赣

  第26届北京大学生电影节(2019)
  最佳观赏效果奖(提名)

  第5届豆瓣电影年度榜单(2018)
  年度华语独立佳作(提名)

  第4届豆瓣电影年度榜单(2017)
  最值得期待的华语电影(提名)
Video
ID : 1
Format : AVC
Format/Info : Advanced Video Codec
Format profile : [email protected]
Format settings : CABAC / 5 Ref Frames
Format settings, CABAC : Yes
Format settings, Reference frames : 5 frames
Codec ID : V_MPEG4/ISO/AVC
Duration : 2 h 18 min
Bit rate : 4 123 kb/s
Width : 1 280 pixels
Height : 696 pixels
Display aspect ratio : 1.85:1
Frame rate mode : Constant
Frame rate : 23.976 (24000/1001) FPS
Color space : YUV
Chroma subsampling : 4:2:0
Bit depth : 8 bits
Scan type : Progressive
Bits/(Pixel*Frame) : 0.193
Stream size : 4.00 GiB (73%)
Writing library : x264 core 157 r2969 d4099dd
Encoding settings : cabac=1 / ref=5 / deblock=1:-3:-3 / analyse=0x3:0x133 / me=umh / subme=9 / psy=1 / psy_rd=1.00:0.00 / mixed_ref=1 / me_range=16 / chroma_me=1 / trellis=2 / 8x8dct=1 / cqm=0 / deadzone=21,11 / fast_pskip=0 / chroma_qp_offset=-2 / threads=18 / lookahead_threads=1 / sliced_threads=0 / nr=0 / decimate=1 / interlaced=0 / bluray_compat=0 / constrained_intra=0 / bframes=3 / b_pyramid=2 / b_adapt=1 / b_bias=0 / direct=3 / weightb=1 / open_gop=0 / weightp=2 / keyint=240 / keyint_min=24 / scenecut=40 / intra_refresh=0 / rc_lookahead=50 / rc=2pass / mbtree=1 / bitrate=4123 / ratetol=1.0 / qcomp=0.60 / qpmin=0 / qpmax=69 / qpstep=4 / cplxblur=20.0 / qblur=0.5 / ip_ratio=1.40 / aq=1:1.00
Language : English
Default : Yes
Forced : No

Audio
ID : 2
Format : DTS
Format/Info : Digital Theater Systems
Codec ID : A_DTS
Duration : 2 h 18 min
Bit rate mode : Constant
Bit rate : 1 509 kb/s
Channel(s) : 6 channels
Channel layout : C L R Ls Rs LFE
Sampling rate : 48.0 kHz
Frame rate : 93.750 FPS (512 SPF)
Bit depth : 24 bits
Compression mode : Lossy
Stream size : 1.46 GiB (27%)
Language : Chinese
Default : Yes
Forced : No

Text #1
ID : 3
Format : UTF-8
Codec ID : S_TEXT/UTF8
Codec ID/Info : UTF-8 Plain Text
Duration : 2 h 17 min
Bit rate : 23 b/s
Count of elements : 755
Stream size : 23.7 KiB (0%)
Title : English
Language : English
Default : Yes
Forced : Yes

Text #2
ID : 4
Format : UTF-8
Codec ID : S_TEXT/UTF8
Codec ID/Info : UTF-8 Plain Text
Duration : 2 h 10 min
Bit rate : 24 b/s
Count of elements : 822
Stream size : 23.8 KiB (0%)
Title : French
Language : French
Default : No
Forced : No

Menu
00:00:00.000 : en:00:00:00.000
00:01:17.744 : en:00:01:17.744
00:08:40.270 : en:00:08:40.270
00:17:57.076 : en:00:17:57.076
00:26:04.438 : en:00:26:04.438
00:34:38.159 : en:00:34:38.159
00:44:32.169 : en:00:44:32.169
00:54:38.192 : en:00:54:38.192
01:01:44.284 : en:01:01:44.284
01:11:21.736 : en:01:11:21.736
01:22:00.582 : en:01:22:00.582
01:32:57.947 : en:01:32:57.947
01:44:33.142 : en:01:44:33.142
01:59:09.768 : en:01:59:09.768
02:11:35.805 : en:02:11:35.805





1 个附件 售价 大小 下载 时间

Long.Days.Journey.Into.Night.2018.720p.BluRay.x264-USURY.torrent 0 金币 27.99K 679 次 7月前

#1楼
发帖时间:2020-02-14 17:58:33   |   回复数:1
911degrees
隐世仙人♂
非常感谢,谢谢分享
7月前 #2楼
游客组