coor
一代宗师

[2019] [欧美] [WEB-1080P] 后会有期 Come.As.You.Are.2019.1080p.AMZN.WEBRip.DDP5.1.x264-NTG 6.48GB

-->

帖子完整标题:后会有期 Come.As.You.Are.2019.1080p.AMZN.WEBRip.DDP5.1.x264-NTG 6.48GB




◎译  名 后会有期
◎片  名 Come As You Are
◎年  代 2019
◎产  地 美国
◎IMDb评分 8.2/10 from 81 users
◎IMDb链接 https://www.imdb.com/title/tt6722726
◎豆瓣评分 0/10 from 0 users
◎豆瓣链接 https://movie.douban.com/subject/30434902/
◎导  演 Richard Wong

◎简  介

  Three young men with disabilities hit the road with a jaded nurse driver to a brothel in Montreal catering to people with special needs. Remake of the acclaimed Belgian film 'Hasta La Vista'.
Video
ID : 1
Format : AVC
Format/Info : Advanced Video Codec
Format profile : [email protected]
Format settings : CABAC / 4 Ref Frames
Format settings, CABAC : Yes
Format settings, Reference frames : 4 frames
Codec ID : V_MPEG4/ISO/AVC
Duration : 1 h 46 min
Bit rate mode : Constant
Bit rate : 8 024 kb/s
Nominal bit rate : 10 000 kb/s
Width : 1 920 pixels
Height : 816 pixels
Display aspect ratio : 2.35:1
Frame rate mode : Constant
Frame rate : 23.976 (24000/1001) FPS
Color space : YUV
Chroma subsampling : 4:2:0
Bit depth : 8 bits
Scan type : Progressive
Bits/(Pixel*Frame) : 0.214
Stream size : 6.00 GiB (93%)
Default : Yes
Forced : No
Color range : Limited
Color primaries : BT.709
Transfer characteristics : BT.709
Matrix coefficients : BT.709

Audio
ID : 2
Format : E-AC-3
Format/Info : Enhanced AC-3
Commercial name : Dolby Digital Plus
Codec ID : A_EAC3
Duration : 1 h 46 min
Bit rate mode : Constant
Bit rate : 640 kb/s
Channel(s) : 6 channels
Channel layout : L R C LFE Ls Rs
Sampling rate : 48.0 kHz
Frame rate : 31.250 FPS (1536 SPF)
Compression mode : Lossy
Stream size : 490 MiB (7%)
Language : English
Service kind : Complete Main
Default : Yes
Forced : No

Text #1
ID : 3
Format : UTF-8
Codec ID : S_TEXT/UTF8
Codec ID/Info : UTF-8 Plain Text
Duration : 1 h 43 min
Bit rate : 75 b/s
Count of elements : 1457
Stream size : 56.9 KiB (0%)
Language : English
Default : No
Forced : No

Text #2
ID : 4
Format : UTF-8
Codec ID : S_TEXT/UTF8
Codec ID/Info : UTF-8 Plain Text
Duration : 1 h 43 min
Bit rate : 77 b/s
Count of elements : 1489
Stream size : 58.4 KiB (0%)
Title : SDH
Language : English
Default : No
Forced : No





1 个附件 售价 大小 下载 时间

Come.As.You.Are.2019.1080p.AMZN.WEBRip.DDP5.1.x264-NTG.torrent 0 金币 32.91K 287 次 12天前

#1楼
发帖时间:2020-02-14 18:25:55   |   回复数:1
911degrees
隐世仙人♂
非常感谢,谢谢分享
12天前 #2楼
游客组