coor
一代宗师

[2018] [韩国] [剧情] [WEB-1080P] 边山 Sunset.In.My.Hometown.2018.KOREAN.1080p.AMZN.WEBRip.DDP2.0.x264-ARiN 4.22GB

-->

帖子完整标题:边山 Sunset.In.My.Hometown.2018.KOREAN.1080p.AMZN.WEBRip.DDP2.0.x264-ARiN 4.22GB




◎译  名 边山 / Byeonsan / Sunset in My Hometown / 我的嘻哈我的家(台)
◎片  名 ??
◎年  代 2018
◎产  地 韩国
◎类  别 剧情
◎语  言 韩语
◎上映日期 2018-07-04(韩国)
◎IMDb评分 5.9/10 from 180 users
◎IMDb链接 https://www.imdb.com/title/tt7095852
◎豆瓣评分 6.9/10 from 2967 users
◎豆瓣链接 https://movie.douban.com/subject/27107273/
◎片  长 123分钟
◎导  演 李濬益 Jun-ik Lee
◎编  剧 金世謙
◎主  演 朴正民 Jeong-min Park
      金高银 Go-Eun Kim
      張航善 Jang Hang-seon
      高俊 Go Joon
      申贤彬 Hyun-bin Shin
      郑圭洙 Gyu-su Jeong
      金俊汉 Joon-han Kim
      裴济基 Bae Je-gi
      崔正憲 Jeong-heon Choi
      赵河硕 Ha-suk Jo
      柳圣贤 Ryoo Seong-hyeon
      韩星 Byul Han


◎标  签 金高银 | 韩国 | 故乡 | 2018 | 青春 | 剧情 | 喜剧 | 朴正民

◎简  介

  影片讲述无名Rapper(朴正民饰)因父亲原因回到故乡边山,与小学同学(金高银饰)相遇后发生的有笑有泪的故事。

◎获奖情况

  第39届韩国电影青龙奖(2018)
  最佳配乐(提名)

  第55届韩国电影大钟奖(2018)
  最佳音乐(提名) 方俊锡
Video
ID : 1
Format : AVC
Format/Info : Advanced Video Codec
Format profile : [email protected]
Format settings : CABAC / 4 Ref Frames
Format settings, CABAC : Yes
Format settings, Reference frames : 4 frames
Codec ID : V_MPEG4/ISO/AVC
Duration : 2 h 3 min
Bit rate mode : Constant
Bit rate : 4 682 kb/s
Nominal bit rate : 10 000 kb/s
Width : 1 920 pixels
Height : 1 080 pixels
Display aspect ratio : 16:9
Frame rate mode : Constant
Frame rate : 23.976 (24000/1001) FPS
Color space : YUV
Chroma subsampling : 4:2:0
Bit depth : 8 bits
Scan type : Progressive
Bits/(Pixel*Frame) : 0.094
Stream size : 4.03 GiB (95%)
Default : Yes
Forced : No
Color range : Limited
Color primaries : BT.709
Transfer characteristics : BT.709
Matrix coefficients : BT.709

Audio
ID : 2
Format : E-AC-3
Format/Info : Enhanced AC-3
Commercial name : Dolby Digital Plus
Codec ID : A_EAC3
Duration : 2 h 3 min
Bit rate mode : Constant
Bit rate : 224 kb/s
Channel(s) : 2 channels
Channel layout : L R
Sampling rate : 48.0 kHz
Frame rate : 31.250 FPS (1536 SPF)
Compression mode : Lossy
Stream size : 197 MiB (5%)
Language : Korean
Service kind : Complete Main
Default : Yes
Forced : No

Text #1
ID : 3
Format : UTF-8
Codec ID : S_TEXT/UTF8
Codec ID/Info : UTF-8 Plain Text
Duration : 1 h 58 min
Bit rate : 55 b/s
Count of elements : 1869
Stream size : 48.6 KiB (0%)
Title : English
Language : English
Default : No
Forced : No

Text #2
ID : 4
Format : UTF-8
Codec ID : S_TEXT/UTF8
Codec ID/Info : UTF-8 Plain Text
Duration : 1 h 58 min
Bit rate : 55 b/s
Count of elements : 1869
Stream size : 48.6 KiB (0%)
Title : English SDH
Language : English
Default : No
Forced : No





1 个附件 售价 大小 下载 时间

Sunset.In.My.Hometown.2018.KOREAN.1080p.AMZN.WEBRip.DDP2.0.x264-ARiN.torrent 0 金币 42.78K 210 次 11天前

#1楼
发帖时间:2020-02-15 01:00:10   |   回复数:1
911degrees
隐世仙人♂
非常感谢,谢谢分享
11天前 #2楼
游客组