coor
一代宗师

[2014] [其他] [剧情] [WEB-1080P] 萨拉热窝事件/一战导火索 Sarajevo.2014.GERMAN.1080p.NF.WEBRip.DD5.1.x264-NTb 3.15GB

-->

帖子完整标题:萨拉热窝事件/一战导火索 Sarajevo.2014.GERMAN.1080p.NF.WEBRip.DD5.1.x264-NTb 3.15GB




◎译  名 萨拉热窝事件 / 一战导火索
◎片  名 Sarajevo
◎年  代 2014
◎产  地 奥地利 / 捷克
◎类  别 剧情 / 历史 / 战争
◎语  言 德语
◎上映日期 2014-04-28(德国)
◎IMDb评分 6.8/10 from 1627 users
◎IMDb链接 https://www.imdb.com/title/tt3691446
◎豆瓣评分 6.9/10 from 198 users
◎豆瓣链接 https://movie.douban.com/subject/26644035/
◎片  长 98分钟
◎导  演 Kurt Mündl / 安德烈亚斯·普罗查斯卡 Andreas Prochaska
◎编  剧 马丁·安布罗希 Martin Ambrosch / Kurt Mündl
◎主  演 Radek Balcárek
      Tereza Blazková
      马特乌什道普莱亚斯基 Mateusz Dopieralski
      Michaela Ehrenstein
      海诺·费尔希 Heino Ferch
      Reinhard Forcher
      梅丽卡·弗鲁坦 Melika Foroutan
      埃丁·哈萨诺维奇 Edin Hasanovic
      Simon Hatzl
      Kasem Hoxha
      朱拉什·库库拉 Juraj Kukura
      于尔根·毛雷尔 Juergen Maurer
      埃尔温·施泰因豪尔 Erwin Steinhauer
      Florian Teichtmeister
      弗里德里希·冯·图恩 Friedrich von Thun


◎标  签 历史 | 一战 | 奥地利 | 战争 | 真实故事改编 | 2014 | 奥地利电影 | 军事

◎简  介

  1914年6月28日上午9时正,奥匈帝国皇太子斐迪南大公参加指挥一次军事演习,演习结束后,塞尔维亚一个秘密组织成员,普林西普向斐迪南夫妇开枪射击,斐迪南夫妇毙命,普林西普被捕。这一事件被称为萨拉热窝事件,被认为是第一次世界大战的导火线。普费弗是一名检察官,他在全力调查这一刺杀事件的幕后主使,幻想阻止大战爆发,眼看真相渐渐清晰的时候,但是第一次世界大战已经迫在眉睫!
Video
ID : 1
Format : AVC
Format/Info : Advanced Video Codec
Format profile : [email protected]
Format settings : CABAC / 3 Ref Frames
Format settings, CABAC : Yes
Format settings, Reference frames : 3 frames
Codec ID : V_MPEG4/ISO/AVC
Duration : 1 h 38 min
Bit rate mode : Variable
Bit rate : 4 220 kb/s
Maximum bit rate : 6 330 kb/s
Width : 1 920 pixels
Height : 1 080 pixels
Display aspect ratio : 16:9
Frame rate mode : Constant
Frame rate : 25.000 FPS
Color space : YUV
Chroma subsampling : 4:2:0
Bit depth : 8 bits
Scan type : Progressive
Bits/(Pixel*Frame) : 0.081
Stream size : 2.88 GiB (92%)
Writing library : x264 core 118
Encoding settings : cabac=1 / ref=3 / deblock=1:0:0 / analyse=0x1:0x111 / me=umh / subme=10 / psy=1 / psy_rd=1.00:0.00 / mixed_ref=1 / me_range=24 / chroma_me=1 / trellis=2 / 8x8dct=0 / cqm=0 / deadzone=21,11 / fast_pskip=1 / chroma_qp_offset=-2 / threads=8 / sliced_threads=0 / nr=0 / decimate=1 / interlaced=0 / bluray_compat=0 / constrained_intra=0 / bframes=2 / b_pyramid=0 / b_adapt=2 / b_bias=0 / direct=3 / weightb=1 / open_gop=0 / weightp=2 / keyint=50 / keyint_min=26 / scenecut=0 / intra_refresh=0 / rc_lookahead=0 / rc=2pass / mbtree=1 / bitrate=4220 / ratetol=1.0 / qcomp=0.50 / qpmin=6 / qpmax=51 / qpstep=4 / cplxblur=20.0 / qblur=0.5 / vbv_maxrate=6330 / vbv_bufsize=8440 / nal_hrd=vbr / ip_ratio=1.40 / aq=1:1.00
Default : Yes
Forced : No

Audio
ID : 2
Format : AC-3
Format/Info : Audio Coding 3
Commercial name : Dolby Digital
Codec ID : A_AC3
Duration : 1 h 38 min
Bit rate mode : Constant
Bit rate : 384 kb/s
Channel(s) : 6 channels
Channel layout : L R C LFE Ls Rs
Sampling rate : 48.0 kHz
Frame rate : 31.250 FPS (1536 SPF)
Compression mode : Lossy
Stream size : 270 MiB (8%)
Title : German
Language : German
Service kind : Complete Main
Default : Yes
Forced : No

Text #1
ID : 3
Format : UTF-8
Codec ID : S_TEXT/UTF8
Codec ID/Info : UTF-8 Plain Text
Duration : 1 h 2 min
Bit rate : 1 b/s
Count of elements : 25
Stream size : 565 Bytes (0%)
Title : Forced
Language : German
Default : Yes
Forced : Yes

Text #2
ID : 4
Format : UTF-8
Codec ID : S_TEXT/UTF8
Codec ID/Info : UTF-8 Plain Text
Duration : 1 h 37 min
Bit rate : 38 b/s
Count of elements : 666
Stream size : 27.2 KiB (0%)
Language : English
Default : No
Forced : No

Text #3
ID : 5
Format : UTF-8
Codec ID : S_TEXT/UTF8
Codec ID/Info : UTF-8 Plain Text
Duration : 1 h 37 min
Bit rate : 64 b/s
Count of elements : 920
Stream size : 45.8 KiB (0%)
Language : Arabic
Default : No
Forced : No

Text #4
ID : 6
Format : UTF-8
Codec ID : S_TEXT/UTF8
Codec ID/Info : UTF-8 Plain Text
Duration : 1 h 37 min
Bit rate : 60 b/s
Count of elements : 666
Stream size : 42.8 KiB (0%)
Language : Bulgarian
Default : No
Forced : No

Text #5
ID : 7
Format : UTF-8
Codec ID : S_TEXT/UTF8
Codec ID/Info : UTF-8 Plain Text
Duration : 1 h 37 min
Bit rate : 38 b/s
Count of elements : 913
Stream size : 27.4 KiB (0%)
Language : Danish
Default : No
Forced : No

Text #6
ID : 8
Format : UTF-8
Codec ID : S_TEXT/UTF8
Codec ID/Info : UTF-8 Plain Text
Duration : 1 h 31 min
Bit rate : 50 b/s
Count of elements : 1036
Stream size : 34.0 KiB (0%)
Language : German
Default : No
Forced : No

Text #7
ID : 9
Format : UTF-8
Codec ID : S_TEXT/UTF8
Codec ID/Info : UTF-8 Plain Text
Duration : 1 h 37 min
Bit rate : 70 b/s
Count of elements : 770
Stream size : 50.4 KiB (0%)
Language : Greek
Default : No
Forced : No

Text #8
ID : 10
Format : UTF-8
Codec ID : S_TEXT/UTF8
Codec ID/Info : UTF-8 Plain Text
Duration : 1 h 37 min
Bit rate : 40 b/s
Count of elements : 915
Stream size : 29.0 KiB (0%)
Language : Spanish
Default : No
Forced : No

Text #9
ID : 11
Format : UTF-8
Codec ID : S_TEXT/UTF8
Codec ID/Info : UTF-8 Plain Text
Duration : 1 h 37 min
Bit rate : 39 b/s
Count of elements : 916
Stream size : 28.0 KiB (0%)
Title : European
Language : Spanish
Default : No
Forced : No

Text #10
ID : 12
Format : UTF-8
Codec ID : S_TEXT/UTF8
Codec ID/Info : UTF-8 Plain Text
Duration : 1 h 37 min
Bit rate : 40 b/s
Count of elements : 916
Stream size : 29.1 KiB (0%)
Language : Finnish
Default : No
Forced : No

Text #11
ID : 13
Format : UTF-8
Codec ID : S_TEXT/UTF8
Codec ID/Info : UTF-8 Plain Text
Duration : 1 h 37 min
Bit rate : 43 b/s
Count of elements : 916
Stream size : 31.3 KiB (0%)
Language : French
Default : No
Forced : No

Text #12
ID : 14
Format : UTF-8
Codec ID : S_TEXT/UTF8
Codec ID/Info : UTF-8 Plain Text
Duration : 1 h 37 min
Bit rate : 52 b/s
Count of elements : 702
Stream size : 37.5 KiB (0%)
Language : Hebrew
Default : No
Forced : No

Text #13
ID : 15
Format : UTF-8
Codec ID : S_TEXT/UTF8
Codec ID/Info : UTF-8 Plain Text
Duration : 1 h 37 min
Bit rate : 41 b/s
Count of elements : 914
Stream size : 29.7 KiB (0%)
Language : Italian
Default : No
Forced : No

Text #14
ID : 16
Format : UTF-8
Codec ID : S_TEXT/UTF8
Codec ID/Info : UTF-8 Plain Text
Duration : 1 h 37 min
Bit rate : 43 b/s
Count of elements : 922
Stream size : 31.2 KiB (0%)
Language : Japanese
Default : No
Forced : No

Text #15
ID : 17
Format : UTF-8
Codec ID : S_TEXT/UTF8
Codec ID/Info : UTF-8 Plain Text
Duration : 1 h 37 min
Bit rate : 50 b/s
Count of elements : 919
Stream size : 35.6 KiB (0%)
Language : Korean
Default : No
Forced : No

Text #16
ID : 18
Format : UTF-8
Codec ID : S_TEXT/UTF8
Codec ID/Info : UTF-8 Plain Text
Duration : 1 h 37 min
Bit rate : 38 b/s
Count of elements : 917
Stream size : 27.3 KiB (0%)
Language : Norwegian Bokmal
Default : No
Forced : No

Text #17
ID : 19
Format : UTF-8
Codec ID : S_TEXT/UTF8
Codec ID/Info : UTF-8 Plain Text
Duration : 1 h 37 min
Bit rate : 40 b/s
Count of elements : 895
Stream size : 29.0 KiB (0%)
Language : Dutch
Default : No
Forced : No

Text #18
ID : 20
Format : UTF-8
Codec ID : S_TEXT/UTF8
Codec ID/Info : UTF-8 Plain Text
Duration : 1 h 37 min
Bit rate : 39 b/s
Count of elements : 916
Stream size : 28.2 KiB (0%)
Language : Polish
Default : No
Forced : No

Text #19
ID : 21
Format : UTF-8
Codec ID : S_TEXT/UTF8
Codec ID/Info : UTF-8 Plain Text
Duration : 1 h 37 min
Bit rate : 40 b/s
Count of elements : 916
Stream size : 28.6 KiB (0%)
Language : Portuguese
Default : No
Forced : No

Text #20
ID : 22
Format : UTF-8
Codec ID : S_TEXT/UTF8
Codec ID/Info : UTF-8 Plain Text
Duration : 1 h 37 min
Bit rate : 38 b/s
Count of elements : 916
Stream size : 27.7 KiB (0%)
Title : Brazilian
Language : Portuguese
Default : No
Forced : No

Text #21
ID : 23
Format : UTF-8
Codec ID : S_TEXT/UTF8
Codec ID/Info : UTF-8 Plain Text
Duration : 1 h 37 min
Bit rate : 40 b/s
Count of elements : 915
Stream size : 28.9 KiB (0%)
Language : Romanian
Default : No
Forced : No

Text #22
ID : 24
Format : UTF-8
Codec ID : S_TEXT/UTF8
Codec ID/Info : UTF-8 Plain Text
Duration : 1 h 37 min
Bit rate : 36 b/s
Count of elements : 916
Stream size : 26.2 KiB (0%)
Language : Swedish
Default : No
Forced : No

Text #23
ID : 25
Format : UTF-8
Codec ID : S_TEXT/UTF8
Codec ID/Info : UTF-8 Plain Text
Duration : 1 h 37 min
Bit rate : 104 b/s
Count of elements : 920
Stream size : 74.0 KiB (0%)
Language : Thai
Default : No
Forced : No

Text #24
ID : 26
Format : UTF-8
Codec ID : S_TEXT/UTF8
Codec ID/Info : UTF-8 Plain Text
Duration : 1 h 37 min
Bit rate : 40 b/s
Count of elements : 917
Stream size : 28.9 KiB (0%)
Language : Turkish
Default : No
Forced : No

Text #25
ID : 27
Format : UTF-8
Codec ID : S_TEXT/UTF8
Codec ID/Info : UTF-8 Plain Text
Duration : 1 h 37 min
Bit rate : 37 b/s
Count of elements : 919
Stream size : 26.4 KiB (0%)
Title : Simplified
Language : Chinese
Default : No
Forced : No

Text #26
ID : 28
Format : UTF-8
Codec ID : S_TEXT/UTF8
Codec ID/Info : UTF-8 Plain Text
Duration : 1 h 37 min
Bit rate : 38 b/s
Count of elements : 917
Stream size : 27.6 KiB (0%)
Title : Traditional
Language : Chinese
Default : No
Forced : No





1 个附件 售价 大小 下载 时间

Sarajevo.2014.GERMAN.1080p.NF.WEBRip.DD5.1.x264-NTb.torrent 0 金币 63.50K 476 次 11天前

#1楼
发帖时间:2020-02-15 01:04:11   |   回复数:3
wuge
武林高手
这个很有意思 看看
11天前 #2楼
911degrees
隐世仙人♂
非常感谢,谢谢分享
11天前 #3楼
kola13
一派掌门
感谢分享
11天前 #4楼
游客组