coor
一代宗师

[更 早] [欧美] [剧情] [BD-1080P] 恐怖古堡 The.Terror.1963.1080p.BluRay.x264.DD5.1-FGT 5.79GB

-->



◎译  名 恐怖古堡 / Lady of the Shadows / The Castle of Terror
◎片  名 The Terror
◎年  代 1963
◎产  地 美国
◎类  别 剧情 / 悬疑 / 惊悚 / 恐怖 / 奇幻
◎语  言 英语
◎上映日期 1963-06-17
◎IMDb评分 5.0/10 from 6716 users
◎IMDb链接 https://www.imdb.com/title/tt0057569
◎豆瓣评分 5.8/10 from 85 users
◎豆瓣链接 https://movie.douban.com/subject/1418668/
◎片  长 81 分钟
◎导  演 罗杰·科曼 Roger Corman / 弗朗西斯·福特·科波拉 Francis Ford Coppola / 蒙特·赫尔曼 Monte Hellman
◎编  剧 Leo Gordon / 杰克·希尔 Jack Hill
◎主  演 波利斯·卡洛夫 Boris Karloff
      杰克·尼科尔森 Jack Nicholson
      Sandra Knight
      迪克·米勒 Dick Miller
      Dorothy Neumann
      乔纳森·海兹 Jonathan Haze


◎标  签 恐怖 | 美国 | 惊悚 | 弗朗西斯·福特·科波拉 | 美国电影 | 爱伦坡 | 罗杰·科曼 | 杰克尼科尔森

◎简  介

  一个年轻的拿破仑军官追踪一个神秘的女人而来到一个年迈男爵的城堡,在那里他发现这个女人是听命于一个老巫婆,其最终目的是迫使男爵自杀……
  Roger directed for two days on a set left over from a previous production, and without a proper script. He hired Francis Coppola to write a script and finish the picture. After five weeks of shooting, Roger fired Francis, and hired me to finish the picture. Jack Hill was hired to write a new script with me. A lot of what Francis shot was thrown out, except for the stuff with the witch from WIZARD OF OZ. (Dorothy Newman), and I finished the picture in five days of shooting. All of the interiors are Roger's (with the exception of Francis's witch's lair), and most of the exteriors are mine. To the best of my recollection, and contrary to legend, Jack Nicholson did not direct any of the film.
Video
ID : 1
Format : AVC
Format/Info : Advanced Video Codec
Format profile : [email protected]
Format settings, CABAC : Yes
Format settings, ReFrames : 4 frames
Codec ID : V_MPEG4/ISO/AVC
Duration : 1h 19mn
Bit rate : 10 000 Kbps
Width : 1 920 pixels
Height : 1 080 pixels
Display aspect ratio : 16:9
Frame rate mode : Constant
Frame rate : 23.976 (24000/1001) fps
Color space : YUV
Chroma subsampling : 4:2:0
Bit depth : 8 bits
Scan type : Progressive
Bits/(Pixel*Frame) : 0.201
Stream size : 5.43 GiB (94%)
Writing library : x264 core 130 r2273 b3065e6
Encoding settings : cabac=1 / ref=3 / deblock=1:0:0 / analyse=0x3:0x113 / me=hex / subme=7 / psy=1 / psy_rd=1.00:0.00 / mixed_ref=1 / me_range=16 / chroma_me=1 / trellis=1 / 8x8dct=1 / cqm=0 / deadzone=21,11 / fast_pskip=1 / chroma_qp_offset=-2 / threads=12 / lookahead_threads=2 / sliced_threads=0 / nr=0 / decimate=1 / interlaced=0 / bluray_compat=0 / constrained_intra=0 / bframes=3 / b_pyramid=2 / b_adapt=1 / b_bias=0 / direct=1 / weightb=1 / open_gop=0 / weightp=2 / keyint=240 / keyint_min=24 / scenecut=40 / intra_refresh=0 / rc_lookahead=40 / rc=abr / mbtree=1 / bitrate=10000 / ratetol=1.0 / qcomp=0.60 / qpmin=0 / qpmax=69 / qpstep=4 / vbv_maxrate=62500 / vbv_bufsize=78125 / nal_hrd=none / ip_ratio=1.40 / aq=1:1.00
Language : English
Default : Yes
Forced : No
Color range : Limited
Color primaries : BT.709
Transfer characteristics : BT.709
Matrix coefficients : BT.709

Audio
ID : 2
Format : AC-3
Format/Info : Audio Coding 3
Mode extension : CM (complete main)
Format settings, Endianness : Big
Codec ID : A_AC3
Duration : 1h 19mn
Bit rate mode : Constant
Bit rate : 448 Kbps
Channel(s) : 6 channels
Channel positions : Front: L C R, Side: L R, LFE
Sampling rate : 48.0 KHz
Frame rate : 31.250 fps (1536 spf)
Compression mode : Lossy
Stream size : 254 MiB (4%)
Language : English
Default : Yes
Forced : No





1 个附件 售价 大小 下载 时间

The.Terror.1963.1080p.BluRay.x264.DD5.1-FGT.torrent 0 金币 58.53K 301 次 13天前

#1楼
发帖时间:2020-06-30 12:08:15   |   回复数:2
911degrees
隐世仙人♂
非常感谢,谢谢分享
13天前 #2楼
blj2007
一派掌门
感谢分享 ,辛苦啦
13天前 #3楼
游客组