coor
一代宗师

[2013] [其他] [惊悚] [BD-1080P] 帕特里克/唬人医院 Patrick.2013.1080p.BluRay.x264.DTS-FGT 6.54GB

-->



◎译  名 帕特里克 / 唬人医院
◎片  名 Patrick
◎年  代 2013
◎产  地 澳大利亚
◎类  别 惊悚 / 恐怖
◎语  言 英语
◎上映日期 2013-10-17(澳大利亚)
◎IMDb评分 4.9/10 from 3704 users
◎IMDb链接 https://www.imdb.com/title/tt2147459
◎豆瓣评分 5.9/10 from 124 users
◎豆瓣链接 https://movie.douban.com/subject/10773230/
◎片  长 96分钟
◎导  演 马克·哈特利 Mark Hartley
◎编  剧 Justin King
◎主  演 查尔斯·丹斯 Charles Dance
      瑞切尔·格里菲斯 Rachel Griffiths
      沙妮·文森 Sharni Vinson
      Peta Sergeant
      达蒙·加梅乌 Damon Gameau
      马丁·克鲁斯 Martin Crewes
      伊莉萨·泰勒-科特尔 Eliza Taylor-Cotter
      Simone Buchanan
      Shane Nagle
      Chris Fortuna
      Jackson Gallagher


◎标  签 恐怖 | 惊悚 | 澳大利亚 | 超能力 | 科幻 | 澳大利亚电影 | 邪恶灵魂 | 2014

◎简  介

  帕特里克昏昏欲睡在一家小型私立医院,他唯一的举动是非自愿地随地吐痰。当一个刚与丈夫分开的年轻护士开始在医院工作时,她感觉到帕特里克正在与她交流,他似乎正在利用自己的心理力量来操纵她生活中的事件。
Video
ID : 1
Format : AVC
Format/Info : Advanced Video Codec
Format profile : [email protected]
Format settings, CABAC : Yes
Format settings, ReFrames : 5 frames
Codec ID : V_MPEG4/ISO/AVC
Duration : 1h 35mn
Bit rate : 8 298 Kbps
Width : 1 920 pixels
Height : 800 pixels
Display aspect ratio : 2.40:1
Frame rate mode : Constant
Frame rate : 24.000 fps
Color space : YUV
Chroma subsampling : 4:2:0
Bit depth : 8 bits
Scan type : Progressive
Bits/(Pixel*Frame) : 0.225
Stream size : 5.41 GiB (83%)
Writing library : x264 core 142 r2409 d6b4e63
Encoding settings : cabac=1 / ref=5 / deblock=1:0:0 / analyse=0x3:0x133 / me=umh / subme=8 / psy=1 / psy_rd=1.00:0.00 / mixed_ref=1 / me_range=16 / chroma_me=1 / trellis=1 / 8x8dct=1 / cqm=0 / deadzone=21,11 / fast_pskip=0 / chroma_qp_offset=-2 / threads=12 / lookahead_threads=2 / sliced_threads=0 / nr=0 / decimate=1 / interlaced=0 / bluray_compat=0 / constrained_intra=0 / bframes=3 / b_pyramid=2 / b_adapt=1 / b_bias=0 / direct=1 / weightb=1 / open_gop=0 / weightp=2 / keyint=250 / keyint_min=24 / scenecut=40 / intra_refresh=0 / rc_lookahead=40 / rc=2pass / mbtree=1 / bitrate=8298 / ratetol=1.0 / qcomp=0.60 / qpmin=0 / qpmax=69 / qpstep=4 / cplxblur=20.0 / qblur=0.5 / ip_ratio=1.40 / aq=1:1.00
Language : English
Default : Yes
Forced : No

Audio
ID : 2
Format : DTS
Format/Info : Digital Theater Systems
Mode : 16
Format settings, Endianness : Big
Codec ID : A_DTS
Duration : 1h 35mn
Bit rate mode : Constant
Bit rate : 1 509 Kbps
Channel(s) : 6 channels
Channel positions : Front: L C R, Side: L R, LFE
Sampling rate : 48.0 KHz
Bit depth : 24 bits
Compression mode : Lossy
Stream size : 1.01 GiB (15%)
Language : English
Default : Yes
Forced : No

Text
ID : 3
Format : UTF-8
Codec ID : S_TEXT/UTF8
Codec ID/Info : UTF-8 Plain Text
Language : English
Default : No
Forced : No





1 个附件 售价 大小 下载 时间

Patrick.2013.1080p.BluRay.x264.DTS-FGT.torrent 0 金币 66.02K 252 次 12天前

#1楼
发帖时间:2020-06-30 23:34:51   |   回复数:1
911degrees
隐世仙人♂
非常感谢,谢谢分享
12天前 #2楼
游客组