q3r3
武林高手

[2016] [其他] [喜剧] [BD-1080P] 美人鱼 The.Mermaid.2016.LIMITED.1080p.BluRay.x264-USURY 7.71GB

-->

帖子完整标题:美人鱼 The.Mermaid.2016.LIMITED.1080p.BluRay.x264-USURY 7.71GB



◎译  名 Mermaid
◎片  名 美人鱼
◎年  代 2016
◎产  地 中国大陆 / 中国香港
◎类  别 喜剧 / 爱情 / 奇幻
◎语  言 汉语普通话 / 英语 / 日语
◎上映日期 2016-02-08(中国大陆/中国香港)
◎IMDb评分 6.2/10 from 8019 users
◎IMDb链接 https://www.imdb.com/title/tt4701660
◎豆瓣评分 6.7/10 from 650084 users
◎豆瓣链接 https://movie.douban.com/subject/19944106/
◎片  长 93分钟
◎导  演 周星驰 Stephen Chow
◎编  剧 周星驰 Stephen Chow / 李思臻 Kelvin Lee / 何妙祺 Miu-Kei Ho / 卢正雨 Zhengyu Lu / 冯志强 Chi Keung Fung / 陈庆嘉 Hing-Ka Chan / 江玉仪 Ivy Kong / 曾谨昌 Kan-Cheung Tsang
◎主  演 邓超 Chao Deng
      罗志祥 Show Luo
      张雨绮 Kitty Zhang
      林允 Yun Lin
      徐克 Hark Tsui
      吴亦凡 Kris
      李尚正 Shangzheng Li
      卢正雨 Zhengyu Lu
      白客 White. K
      孔连顺 Lianshun Kong
      田启文 Kai Man Tin
      文章 Zhang Wen
      杨能 Neng Yang
      张美娥 Mei'e Zhang
      李叶青 Yeqing Li
      林子聪 Chi Chung Lam
      赵志凌 Chi-Ling Chiu
      郑冀峰
      钱国伟 Wilson Chin
      范淑珍 Shuzhen Fan
      艾文·科蒂克 Ivan Kotik
      松冈李那 Linah Matsuoka
      徐轸轸
      夏尉喻 Barbie
      皮埃尔·布迪厄
      孙嘉灵 Jialing Sun
      许雅婷 Kabby Hui
      赵靖伊
      付骏福
      虞嘉娜 Jiana Yu
      宁小花 Xiaohua Ning
      易志乐
      孙乐天 Letian Sun


◎标  签 星爷 | 喜剧 | 爱情 | 生态 | 奇幻 | 环保 | 2016 | 香港

◎简  介

  白手起家的富豪刘轩(邓超 饰)新拍下了一块地皮,并联合了女强人李若兰(张雨绮 饰)使用恐怖的声纳技术驱赶鱼类,用于填海造地。人鱼一族长期居住在附近区域的海里,为了继续生存,带头大哥章鱼八哥(罗志祥 饰)派出了美人鱼珊珊(林允 饰)“色诱”刘轩,准备刺杀。没想到珊珊在卧底过程中与刘轩暗生情愫,一次次破坏暗杀计划,而李若兰却在准备一个更丧心病狂的邪恶计划……

◎获奖情况

  第36届香港电影金像奖(2017)
  最佳电影(提名)
  最佳导演(提名) 周星驰
  最佳编剧(提名) 周星驰
  最佳女配角(提名) 张雨绮
  最佳新演员(提名) 林允
  最佳美术指导(提名)
  最佳原创电影歌曲(提名)
  最佳视觉效果(提名)

  第11届亚洲电影大奖(2017)
  最佳新演员(提名) 林允

  第3届豆瓣电影年度榜单(2016)
  最受关注的院线电影(提名)
  2月最受关注电影

Video
ID : 1
Format : AVC
Format/Info : Advanced Video Codec
Format profile : [email protected]
Format settings : CABAC / 5 Ref Frames
Format settings, CABAC : Yes
Format settings, Reference frames : 5 frames
Codec ID : V_MPEG4/ISO/AVC
Duration : 1 h 33 min
Bit rate : 8 649 kb/s
Width : 1 920 pixels
Height : 816 pixels
Display aspect ratio : 2.35:1
Frame rate mode : Constant
Frame rate : 23.976 FPS
Color space : YUV
Chroma subsampling : 4:2:0
Bit depth : 8 bits
Scan type : Progressive
Bits/(Pixel*Frame) : 0.230
Stream size : 5.67 GiB (74%)
Writing library : x264 core 148 r2692 64f4e24
Encoding settings : cabac=1 / ref=5 / deblock=1:0:0 / analyse=0x3:0x133 / me=umh / subme=9 / psy=1 / psy_rd=1.00:0.00 / mixed_ref=1 / me_range=16 / chroma_me=1 / trellis=1 / 8x8dct=1 / cqm=0 / deadzone=21,11 / fast_pskip=0 / chroma_qp_offset=-2 / threads=18 / lookahead_threads=1 / sliced_threads=0 / nr=0 / decimate=1 / interlaced=0 / bluray_compat=0 / constrained_intra=0 / bframes=3 / b_pyramid=2 / b_adapt=2 / b_bias=0 / direct=3 / weightb=1 / open_gop=0 / weightp=2 / keyint=250 / keyint_min=23 / scenecut=40 / intra_refresh=0 / rc_lookahead=50 / rc=2pass / mbtree=1 / bitrate=8649 / ratetol=1.0 / qcomp=0.60 / qpmin=0 / qpmax=69 / qpstep=4 / cplxblur=20.0 / qblur=0.5 / ip_ratio=1.40 / aq=1:1.00
Language : English
Default : Yes
Forced : No

Audio #1
ID : 2
Format : DTS
Format/Info : Digital Theater Systems
Codec ID : A_DTS
Duration : 1 h 33 min
Bit rate mode : Constant
Bit rate : 1 509 kb/s
Channel(s) : 6 channels
Channel layout : C L R Ls Rs LFE
Sampling rate : 48.0 kHz
Frame rate : 93.750 FPS (512 SPF)
Bit depth : 24 bits
Compression mode : Lossy
Stream size : 1 013 MiB (13%)
Language : Chinese
Default : Yes
Forced : No

Audio #2
ID : 3
Format : DTS
Format/Info : Digital Theater Systems
Codec ID : A_DTS
Duration : 1 h 33 min
Bit rate mode : Constant
Bit rate : 1 509 kb/s
Channel(s) : 6 channels
Channel layout : C L R Ls Rs LFE
Sampling rate : 48.0 kHz
Frame rate : 93.750 FPS (512 SPF)
Bit depth : 24 bits
Compression mode : Lossy
Stream size : 1 013 MiB (13%)
Language : English
Default : No
Forced : No

Text #1
ID : 4
Format : UTF-8
Codec ID : S_TEXT/UTF8
Codec ID/Info : UTF-8 Plain Text
Duration : 1 h 26 min
Bit rate : 49 b/s
Count of elements : 1057
Stream size : 31.1 KiB (0%)
Title : English
Language : English
Default : Yes
Forced : Yes

Text #2
ID : 5
Format : UTF-8
Codec ID : S_TEXT/UTF8
Codec ID/Info : UTF-8 Plain Text
Duration : 12 min 45 s
Bit rate : 0 b/s
Count of elements : 2
Stream size : 18.0 Bytes (0%)
Title : forced
Language : English
Default : No
Forced : No

Menu
00:00:00.000 : en:00:00:00.000
00:05:38.755 : en:00:05:38.755
00:12:00.428 : en:00:12:00.428
00:17:58.452 : en:00:17:58.452
00:25:16.223 : en:00:25:16.223
00:31:03.153 : en:00:31:03.153
00:40:53.868 : en:00:40:53.868
00:49:40.603 : en:00:49:40.603
00:56:01.233 : en:00:56:01.233
00:59:55.467 : en:00:59:55.467
01:04:32.160 : en:01:04:32.160
01:07:34.842 : en:01:07:34.842
01:12:39.146 : en:01:12:39.146
01:17:39.780 : en:01:17:39.780
01:22:39.621 : en:01:22:39.621
01:25:22.242 : en:01:25:22.242





1 个附件 售价 大小 下载 时间

The.Mermaid.2016.LIMITED.1080p.BluRay.x264-USURY.zip 0 金币 78.64K 378 次 3天前

#1楼
发帖时间:2020-08-02 09:26:43   |   回复数:0
游客组