q3r3
武林高手

[更 早] [其他] [剧情] [BD-1080P] 烽火怪杰 Walker.1987.1080p.BluRay.x264-USURY 8.74GB

-->

帖子完整标题:烽火怪杰 Walker.1987.1080p.BluRay.x264-USURY 8.74GB



◎译  名 烽火怪杰
◎片  名 Walker
◎年  代 1987
◎产  地 美国 / 墨西哥 / 西班牙
◎类  别 剧情 / 动作 / 历史 / 战争 / 西部 / 冒险
◎语  言 英语 / 美国手语
◎上映日期 1987-12-04
◎IMDb评分 6.6/10 from 3127 users
◎IMDb链接 https://www.imdb.com/title/tt0096409
◎豆瓣评分 7.2/10 from 907 users
◎豆瓣链接 https://movie.douban.com/subject/1305051/
◎片  长 94 分钟
◎导  演 Alex Cox
◎编  剧 Rudy Wurlitzer
◎主  演 Ed Harris
      Richard Masur
      René Assa


◎标  签 美国 | CC | 传记 | 墨西哥 | 1987 | 美国电影 | 1980s | 战争

◎简  介

  亚历克斯.考克斯执导的本片在美国曾产生过一定的影响力。主要讲述在十九世纪中叶,理想主义者威廉华克应美国资本家科尼利厄斯范德比尔之邀,率领一群亡命之徒侵入中美洲国家尼加拉瓜,不但占领了国土,还宣称自己是该国总统,因为他相信“美国人有义务保护他们的邻居不受压迫”。故事根据历史事件改编,对美国人的侵犯行为作出了大胆而深入的探讨。全片气派雄伟,场面壮观。曾主演《心深处》的性格小生埃德.哈里斯在本片中扮演烽火怪杰威廉华克,表现相当突出,有震憾人心的演出。

◎获奖情况

  第38届柏林国际电影节(1988)
  金熊奖 最佳影片(提名) 亚力克斯·考克斯

Video
ID : 1
Format : AVC
Format/Info : Advanced Video Codec
Format profile : [email protected]
Format settings : CABAC / 4 Ref Frames
Format settings, CABAC : Yes
Format settings, Reference frames : 4 frames
Codec ID : V_MPEG4/ISO/AVC
Duration : 1 h 34 min
Bit rate : 13.0 Mb/s
Width : 1 920 pixels
Height : 1 040 pixels
Display aspect ratio : 1.85:1
Frame rate mode : Constant
Frame rate : 23.976 (24000/1001/189150) FPS
Color space : YUV
Chroma subsampling : 4:2:0
Bit depth : 8 bits
Scan type : Progressive
Bits/(Pixel*Frame) : 0.271
Stream size : 8.56 GiB (98%)
Writing library : x264 core 148 r2762 90a61ec
Encoding settings : cabac=1 / ref=4 / deblock=1:-3:-3 / analyse=0x3:0x133 / me=umh / subme=9 / psy=1 / psy_rd=1.00:0.00 / mixed_ref=1 / me_range=16 / chroma_me=1 / trellis=2 / 8x8dct=1 / cqm=0 / deadzone=21,11 / fast_pskip=0 / chroma_qp_offset=-2 / threads=24 / lookahead_threads=2 / sliced_threads=0 / nr=0 / decimate=1 / interlaced=0 / bluray_compat=0 / constrained_intra=0 / bframes=3 / b_pyramid=2 / b_adapt=1 / b_bias=0 / direct=3 / weightb=1 / open_gop=0 / weightp=2 / keyint=250 / keyint_min=23 / scenecut=40 / intra_refresh=0 / rc_lookahead=50 / rc=2pass / mbtree=1 / bitrate=12957 / ratetol=1.0 / qcomp=0.60 / qpmin=0 / qpmax=69 / qpstep=4 / cplxblur=20.0 / qblur=0.5 / ip_ratio=1.40 / aq=1:1.00
Language : English
Default : Yes
Forced : No

Audio
ID : 2
Format : FLAC
Format/Info : Free Lossless Audio Codec
Codec ID : A_FLAC
Duration : 1 h 34 min
Bit rate mode : Variable
Bit rate : 266 kb/s
Channel(s) : 1 channel
Channel layout : C
Sampling rate : 48.0 kHz
Frame rate : 11.719 FPS (4096 SPF)
Bit depth : 16 bits
Compression mode : Lossless
Stream size : 180 MiB (2%)
Writing library : libFLAC 1.2.1 (UTC 2007-09-17)
Language : English
Default : Yes
Forced : No

Text #1
ID : 3
Format : UTF-8
Codec ID : S_TEXT/UTF8
Codec ID/Info : UTF-8 Plain Text
Duration : 54 min 11 s
Bit rate : 6 b/s
Count of elements : 82
Stream size : 2.42 KiB (0%)
Title : forced
Language : English
Default : Yes
Forced : Yes

Text #2
ID : 4
Format : UTF-8
Codec ID : S_TEXT/UTF8
Codec ID/Info : UTF-8 Plain Text
Duration : 1 h 29 min
Bit rate : 57 b/s
Count of elements : 923
Stream size : 37.8 KiB (0%)
Title : English
Language : English
Default : No
Forced : No

Menu
00:00:00.000 : en:00:00:00.000
00:06:01.653 : en:00:06:01.653
00:10:52.735 : en:00:10:52.735
00:16:21.063 : en:00:16:21.063
00:19:58.030 : en:00:19:58.030
00:25:22.354 : en:00:25:22.354
00:30:21.111 : en:00:30:21.111
00:40:41.272 : en:00:40:41.272
00:48:26.445 : en:00:48:26.445
00:55:11.725 : en:00:55:11.725
00:58:59.661 : en:00:58:59.661
01:01:48.330 : en:01:01:48.330
01:05:45.567 : en:01:05:45.567
01:11:10.016 : en:01:11:10.016
01:16:49.396 : en:01:16:49.396
01:28:23.048 : en:01:28:23.048





1 个附件 售价 大小 下载 时间

Walker.1987.1080p.BluRay.x264-USURY.zip 0 金币 88.05K 217 次 3天前

#1楼
发帖时间:2020-08-02 09:29:44   |   回复数:0
游客组