q3r3
武林高手

[2013] [其他] [剧情] [BD-1080P] 南极洲:冰上的一年 Antarctica.A.Year.on.Ice.2013.1080p.BluRay.x264-USURY 6.56GB

-->

帖子完整标题:南极洲:冰上的一年 Antarctica.A.Year.on.Ice.2013.1080p.BluRay.x264-USURY 6.56GB



◎译  名 南极洲:冰上的一年
◎片  名 Antarctica: A Year on Ice
◎年  代 2013
◎产  地 新西兰
◎类  别 剧情 / 纪录片 / 传记 / 冒险
◎语  言 英语
◎上映日期 2013-07-21(新西兰国际电影节)
◎IMDb评分 7.6/10 from 3262 users
◎IMDb链接 https://www.imdb.com/title/tt2361700
◎豆瓣评分 8.8/10 from 484 users
◎豆瓣链接 https://movie.douban.com/subject/24531004/
◎片  长 91分钟
◎导  演 Anthony Powell
◎编  剧 Anthony Powell / Simon Price
◎主  演 Genevieve Bachman
      Michael Christiansen
      Tom Hamann
      George Lampman
      Peter Lund
      Keri Nelson
      Casey O'Brien
      Anthony Powell
      Christine Powell
      David Prutsman
      Josh Swanson
      Andrew Velman


◎标  签 纪录片 | 南极 | 新西兰 | 自然 | 2013 | Documentary | 纪录 | 纪实

◎简  介

  《南极洲:冰上的一年》由曾为BBC制作《冰冻星球》(Frozen Planet)的摄影师安东尼·鲍威尔,花费十余年时间拍摄完成。影片独辟蹊径,出现在镜头前的并非科研人员,而是那些维持科考站每日运作的普通人。通过忠实和细心的纪录,描绘出南极洲壮阔的景观,以及冰原上人们的生活。展示出前所未见的自然和人文风貌。影片将于11月28日北美上映。

Video
ID : 1
Format : AVC
Format/Info : Advanced Video Codec
Format profile : [email protected]
Format settings : CABAC / 4 Ref Frames
Format settings, CABAC : Yes
Format settings, Reference frames : 4 frames
Codec ID : V_MPEG4/ISO/AVC
Duration : 1 h 32 min
Bit rate : 8 685 kb/s
Width : 1 920 pixels
Height : 1 080 pixels
Display aspect ratio : 16:9
Frame rate mode : Constant
Frame rate : 23.976 FPS
Color space : YUV
Chroma subsampling : 4:2:0
Bit depth : 8 bits
Scan type : Progressive
Bits/(Pixel*Frame) : 0.175
Stream size : 5.59 GiB (85%)
Writing library : x264 core 146 r2538 121396c
Encoding settings : cabac=1 / ref=4 / deblock=1:0:0 / analyse=0x3:0x133 / me=umh / subme=7 / psy=1 / psy_rd=1.00:0.00 / mixed_ref=1 / me_range=16 / chroma_me=1 / trellis=1 / 8x8dct=1 / cqm=0 / deadzone=21,11 / fast_pskip=0 / chroma_qp_offset=-2 / threads=60 / lookahead_threads=8 / sliced_threads=0 / nr=0 / decimate=1 / interlaced=0 / bluray_compat=0 / constrained_intra=0 / bframes=3 / b_pyramid=2 / b_adapt=2 / b_bias=0 / direct=3 / weightb=1 / open_gop=0 / weightp=2 / keyint=250 / keyint_min=23 / scenecut=40 / intra_refresh=0 / rc_lookahead=50 / rc=2pass / mbtree=1 / bitrate=8685 / ratetol=1.0 / qcomp=0.60 / qpmin=0 / qpmax=69 / qpstep=4 / cplxblur=20.0 / qblur=0.5 / ip_ratio=1.40 / aq=1:1.00
Language : English
Default : Yes
Forced : No

Audio
ID : 2
Format : DTS
Format/Info : Digital Theater Systems
Codec ID : A_DTS
Duration : 1 h 32 min
Bit rate mode : Constant
Bit rate : 1 509 kb/s
Channel(s) : 6 channels
Channel layout : C L R Ls Rs LFE
Sampling rate : 48.0 kHz
Frame rate : 93.750 FPS (512 SPF)
Bit depth : 24 bits
Compression mode : Lossy
Stream size : 993 MiB (15%)
Language : English
Default : Yes
Forced : No

Menu
00:00:00.000 : en:00:00:00.000
00:04:53.376 : en:00:04:53.376
00:11:57.675 : en:00:11:57.675
00:18:42.371 : en:00:18:42.371
00:27:04.998 : en:00:27:04.998
00:33:19.581 : en:00:33:19.581
00:42:56.240 : en:00:42:56.240
00:50:23.729 : en:00:50:23.729
00:56:16.790 : en:00:56:16.790
01:04:05.508 : en:01:04:05.508
01:10:00.571 : en:01:10:00.571
01:17:56.797 : en:01:17:56.797
01:28:10.619 : en:01:28:10.619





1 个附件 售价 大小 下载 时间

Antarctica.A.Year.on.Ice.2013.1080p.BluRay.x264-USURY.zip 0 金币 33.45K 574 次 2天前

#1楼
发帖时间:2020-08-02 09:33:20   |   回复数:1
chulps
一代宗师
~ 珍惜+支持 ~
7小时前 #2楼
游客组