travismk
一代宗师

[更 早] [欧美] [喜剧] [WEB-1080P] 女儿乐 Girl.Happy.1965.1080p.AMZN.WEBRip.DDP2.0.x264-SbR 7.69GB

-->

帖子完整标题:女儿乐 Girl.Happy.1965.1080p.AMZN.WEBRip.DDP2.0.x264-SbR 7.69GB



◎译  名 女儿乐
◎片  名 Girl Happy
◎年  代 1965
◎产  地 美国
◎类  别 喜剧 / 爱情 / 歌舞
◎语  言 英语
◎上映日期 1965-04-17(美国)
◎IMDb评分 6.5/10 from 2057 users
◎IMDb链接 https://www.imdb.com/title/tt0059224/
◎豆瓣评分 /10 from 0 users
◎豆瓣链接 https://movie.douban.com/subject/6005019/
◎片  长 96分钟
◎导  演 鲍里斯·萨加尔 Boris Sagal
◎编  剧 哈维·布洛克 Harvey Bullock / R·S·艾伦 R.S. Allen
◎主  演 埃尔维斯·普雷斯利 Elvis Presley
      谢莉·法芭勒斯 Shelley Fabares
      加里·克劳斯贝 Gary Crosby
      妮塔塔尔博特 Nita Talbot
      乔比贝克 Joby Baker
      玛丽·安·莫布利 Mary Ann Mobley
      哈罗德·J.斯通 Harold J. Stone

◎标  签 ElvisPresley | 1965 | 美国 | 歌舞 | Elvis | 6.8 | 1970 | **1/2

◎简  介

  春假来临,在芝加哥一间歌厅驻唱的Rusty准备和乐队小伙伴辞掉工作,去劳德代尔堡的度假村放松。但歌厅老板不肯放人。Rusty听说老板的千金Valerie也要去度假,便假公济私地提出帮老板暗中盯梢,保护Valerie。然而,在和Valerie相处的过程中,Rusty却渐渐爱上了她。听说这件事后,老板暴跳如雷,把Rusty此行的目的告诉了女儿,Rusty能否挽回Valerie呢?

Video
ID : 1
Format : AVC
Format/Info : Advanced Video Codec
Format profile : [email protected]
Format settings : CABAC / 4 Ref Frames
Format settings, CABAC : Yes
Format settings, Reference frames : 4 frames
Codec ID : V_MPEG4/ISO/AVC
Duration : 1 h 36 min
Bit rate mode : Variable
Bit rate : 11.2 Mb/s
Maximum bit rate : 15.0 Mb/s
Width : 1 920 pixels
Height : 800 pixels
Display aspect ratio : 2.40:1
Frame rate mode : Constant
Frame rate : 23.976 (24000/1001/189150) FPS
Color space : YUV
Chroma subsampling : 4:2:0
Bit depth : 8 bits
Scan type : Progressive
Bits/(Pixel*Frame) : 0.305
Stream size : 7.54 GiB (98%)
Writing library : x264 core 148 r2623 d5b2374
Encoding settings : cabac=1 / ref=4 / deblock=1:-1:-1 / analyse=0x3:0x133 / me=umh / subme=9 / psy=1 / psy_rd=1.00:0.15 / mixed_ref=1 / me_range=24 / chroma_me=1 / trellis=2 / 8x8dct=1 / cqm=0 / deadzone=21,11 / fast_pskip=1 / chroma_qp_offset=-3 / threads=25 / lookahead_threads=4 / sliced_threads=0 / nr=150 / decimate=1 / interlaced=0 / bluray_compat=0 / constrained_intra=0 / bframes=8 / b_pyramid=2 / b_adapt=2 / b_bias=0 / direct=3 / weightb=1 / open_gop=0 / weightp=2 / keyint=120 / keyint_min=61 / scenecut=0 / intra_refresh=0 / rc_lookahead=120 / rc=crf / mbtree=1 / crf=18.0 / qcomp=0.60 / qpmin=0 / qpmax=69 / qpstep=4 / vbv_maxrate=15000 / vbv_bufsize=31250 / crf_max=0.0 / nal_hrd=vbr / filler=0 / ip_ratio=1.40 / aq=3:1.00
Language : English
Default : Yes
Forced : No
Color range : Limited
Color primaries : BT.709
Transfer characteristics : BT.709
Matrix coefficients : BT.709

Audio
ID : 2
Format : E-AC-3
Format/Info : Enhanced AC-3
Commercial name : Dolby Digital Plus
Codec ID : A_EAC3
Duration : 1 h 36 min
Bit rate mode : Constant
Bit rate : 224 kb/s
Channel(s) : 2 channels
Channel layout : L R
Sampling rate : 48.0 kHz
Frame rate : 31.250 FPS (1536 SPF)
Compression mode : Lossy
Stream size : 154 MiB (2%)
Language : English
Service kind : Complete Main
Default : Yes
Forced : No

Text #1
ID : 3
Format : UTF-8
Codec ID : S_TEXT/UTF8
Codec ID/Info : UTF-8 Plain Text
Duration : 1 h 35 min
Bit rate : 68 b/s
Count of elements : 1335
Stream size : 48.0 KiB (0%)
Language : English
Default : No
Forced : No

Text #2
ID : 4
Format : UTF-8
Codec ID : S_TEXT/UTF8
Codec ID/Info : UTF-8 Plain Text
Duration : 1 h 35 min
Bit rate : 72 b/s
Count of elements : 1937
Stream size : 50.3 KiB (0%)
Title : SDH
Language : English
Default : No
Forced : No

Menu
00:00:00.000 : en:01. Title Song Credits
00:03:38.545 : en:02. Overprotection Duty
00:09:15.382 : en:03. Spring Fever
00:12:51.681 : en:04. Fort Lauderdale Chamber of Commerce
00:17:05.226 : en:05. Startin\' Tonight
00:19:30.246 : en:06. Wolf Call
00:23:39.745 : en:07. Do Not Disturb
00:27:26.013 : en:08. Rocking Romano\'s Boat
00:30:10.803 : en:09. Seeing Valerie Home
00:32:47.584 : en:10. Beach Patrol
00:35:58.775 : en:11. Cross My Heart and Hope to Die
00:38:14.202 : en:12. Bridge Breakup
00:40:55.947 : en:13. The Meanest Girl in Town
00:43:07.287 : en:14. No More Interruptions
00:46:29.155 : en:15. I\'ve Got News for You
00:50:04.286 : en:16. Do the Clam
00:54:42.273 : en:17. Puppet on a String (1)
00:58:25.954 : en:18. Poor Rusty
01:02:08.552 : en:19. Puppet on a String (2)
01:03:38.058 : en:20. From Girl to Girl
01:09:13.893 : en:21. Truth About Rusty
01:11:23.022 : en:22. Kit Kat Chaos
01:16:03.761 : en:23. Can\'t Get Arrested
01:19:26.964 : en:24. Jail Break-In
01:23:29.456 : en:25. Beat It, Girlie
01:28:54.990 : en:26. I\'ve Got to Find My Baby
01:32:50.392 : en:27. Girl Happy
01:35:31.344 : en:28. Cast List





1 个附件 售价 大小 下载 时间

Girl.Happy.1965.1080p.AMZN.WEBRip.DDP2.0.x264-SbR.zip 0 金币 39.90K 154 次 13天前

#1楼
发帖时间:2020-10-18 19:16:09   |   回复数:0
游客组