travismk
一代宗师

[2020] [欧美] [其他] [BD-4K] 爱与怪物 Love.and.Monsters.2020.2160p.WEB.H265-NAISU 11.67GB

-->

帖子完整标题:爱与怪物 Love.and.Monsters.2020.2160p.WEB.H265-NAISU 11.67GB



◎译  名 爱与怪物/Monster Problems/怪物问题
◎片  名 Love and Monsters
◎年  代 2020
◎产  地 美国
◎类  别 冒险
◎语  言 英语
◎上映日期 2020-10-16(美国)
◎IMDb评分 7.2/10 from 1820 users
◎IMDb链接 https://www.imdb.com/title/tt2222042/
◎豆瓣评分 7.4/10 from 229 users
◎豆瓣链接 https://movie.douban.com/subject/21349338/
◎导  演 迈克尔·马修斯 Michael Matthews
◎编  剧 布莱恩·达菲尔德 Brian Duffield / 马修·罗宾逊 Matthew Robinson
◎主  演 迪伦·奥布莱恩 Dylan O'Brien
      梅拉妮·萨内蒂 Melanie Zanetti
      迈克尔·鲁克 Michael Rooker
      杰西卡·亨维克 Jessica Henwick
      艾伦·霍尔曼 Ellen Hollman
      阿玛莉·沃德 Amali Ward
      阿丽亚娜·格林布拉特 Ariana Greenblatt
      丹尼尔·尤因 Daniel Ewing
      达米安·加维 Damien Garvey
      塔斯尼姆·罗克 Tasneem Roc
      拉里·塞达尔 Larry Cedar
      坦蒂·莱特 Tandi Wright
      特克赫·图哈卡 Te Kohe Tuhaka
      米莉亚玛·史密斯 Miriama Smith
      安德鲁·布坎南 Andrew Buchanan
      托马斯·坎贝尔 Thomas Campbell

◎标  签 怪物 | 科幻 | 奇幻 | 美国 | 2020 | 美国电影 | 电影 | 迪伦·奥布莱恩

◎简  介

  影片据称风格结合《僵尸之地》和约翰·修斯的青少年电影,讲述一场“怪物末日”迫使所有人类转到地下殖民地居住,此事件7年后,男主Joel Dawson(奥布莱恩)目睹身边的幸存者们都成双成对了,他也想和自己的梦中女孩Aimee(亨维克)在一起。为此,Dawson勇敢地去到地表,并和一只英勇的狗狗及两个人(鲁克和Greenblatt)成了队友,在他们的帮助下,Dawson要努力穿越怪兽横行的后末世,寻找真爱。

Video
ID : 1
Format : HEVC
Format/Info : High Efficiency Video Coding
Format profile : [email protected]@Main
Codec ID : V_MPEGH/ISO/HEVC
Duration : 1 h 48 min
Bit rate : 14.6 Mb/s
Width : 3 840 pixels
Height : 2 160 pixels
Display aspect ratio : 16:9
Frame rate mode : Constant
Frame rate : 23.976 (24000/1001/189150) FPS
Color space : YUV
Chroma subsampling : 4:2:0
Bit depth : 8 bits
Bits/(Pixel*Frame) : 0.074
Stream size : 11.1 GiB (96%)
Default : Yes
Forced : No
Color range : Limited
Color primaries : BT.709
Transfer characteristics : BT.709
Matrix coefficients : BT.709

Audio
ID : 2
Format : E-AC-3
Format/Info : Enhanced AC-3
Commercial name : Dolby Digital Plus
Codec ID : A_EAC3
Duration : 1 h 48 min
Bit rate mode : Constant
Bit rate : 256 kb/s
Channel(s) : 6 channels
Channel layout : L R C LFE Ls Rs
Sampling rate : 48.0 kHz
Frame rate : 31.250 FPS (1536 SPF)
Compression mode : Lossy
Stream size : 199 MiB (2%)
Language : English
Service kind : Complete Main
Default : Yes
Forced : No

Text
ID : 3
Format : UTF-8
Codec ID : S_TEXT/UTF8
Codec ID/Info : UTF-8 Plain Text
Language : English
Default : No
Forced : No





1 个附件 售价 大小 下载 时间

Love.and.Monsters.2020.2160p.WEB.H265-NAISU.zip 0 金币 59.07K 1729 次 13天前

#1楼
发帖时间:2020-10-18 20:09:48   |   回复数:2
truekyo
小有名气
我了个去,这么快有高清了,期待熟肉版本。
13天前 #2楼
kola13
武林盟主
感谢分享
13天前 #3楼
游客组