travismk
一代宗师

[2018] [欧美] [喜剧] [WEB-1080P] 科德和蒂什带你看皇家婚礼 The.Royal.Wedding.Live.with.Cord.and.Tish.2018.1080p.AMZN.WEBRip.DD

-->

帖子完整标题:科德和蒂什带你看皇家婚礼 The.Royal.Wedding.Live.with.Cord.and.Tish.2018.1080p.AMZN.WEBRip.DDP2.0.x264-NTG 5.36GB



◎译  名 科德和蒂什带你看皇家婚礼
◎片  名 The Royal Wedding Live with Cord and Tish!
◎年  代 2018
◎产  地 美国
◎类  别 喜剧
◎语  言 英语
◎上映日期 2018-05-19(美国)
◎IMDb评分 6.1/10 from 129 users
◎IMDb链接 https://www.imdb.com/title/tt8358168/
◎豆瓣评分 /10 from 0 users
◎豆瓣链接 https://movie.douban.com/subject/30225761/
◎片  长 89分钟
◎编  剧 威尔·法瑞尔 Will Ferrell / Jake Fogelnest / 莫莉·香侬 Molly Shannon / 安德鲁·斯蒂尔 Andrew Steele
◎主  演 威尔·法瑞尔 Will Ferrell
      莫莉·香侬 Molly Shannon
      克里斯汀·韦格 Kristen Wiig
      蒂姆·麦道斯 Tim Meadows

◎标  签 美国 | 美国电影 | 搞笑 | 喜剧

◎简  介

  Beloved television personalities Cord Hosenbeck and Tish Cattigan host live coverage of the Royal Wedding m.77mi.cc of Prince Harry and Meghan Markle.

◎获奖情况

  第6届美国化妆及发型设计工会奖 ?(2019)
  电视电影/特别节目类最佳特效化妆(提名)

Video
ID : 1
Format : AVC
Format/Info : Advanced Video Codec
Format profile : [email protected]
Format settings : CABAC / 4 Ref Frames
Format settings, CABAC : Yes
Format settings, Reference frames : 4 frames
Codec ID : V_MPEG4/ISO/AVC
Duration : 1 h 29 min
Bit rate : 8 377 kb/s
Width : 1 920 pixels
Height : 1 080 pixels
Display aspect ratio : 16:9
Frame rate mode : Constant
Frame rate : 29.970 (30000/1001/189150) FPS
Color space : YUV
Chroma subsampling : 4:2:0
Bit depth : 8 bits
Scan type : Progressive
Bits/(Pixel*Frame) : 0.135
Stream size : 5.22 GiB (97%)
Default : Yes
Forced : No
Color range : Limited
Color primaries : BT.709
Transfer characteristics : BT.709
Matrix coefficients : BT.709

Audio
ID : 2
Format : E-AC-3
Format/Info : Enhanced AC-3
Commercial name : Dolby Digital Plus
Codec ID : A_EAC3
Duration : 1 h 29 min
Bit rate mode : Constant
Bit rate : 224 kb/s
Channel(s) : 2 channels
Channel layout : L R
Sampling rate : 48.0 kHz
Frame rate : 31.250 FPS (1536 SPF)
Compression mode : Lossy
Stream size : 143 MiB (3%)
Language : English
Service kind : Complete Main
Default : Yes
Forced : No

Text #1
ID : 3
Format : UTF-8
Codec ID : S_TEXT/UTF8
Codec ID/Info : UTF-8 Plain Text
Duration : 1 h 28 min
Bit rate : 95 b/s
Count of elements : 2774
Stream size : 61.9 KiB (0%)
Language : English
Default : No
Forced : No

Text #2
ID : 4
Format : UTF-8
Codec ID : S_TEXT/UTF8
Codec ID/Info : UTF-8 Plain Text
Duration : 1 h 28 min
Bit rate : 95 b/s
Count of elements : 2782
Stream size : 62.1 KiB (0%)
Title : SDH
Language : English
Default : No
Forced : No





1 个附件 售价 大小 下载 时间

The.Royal.Wedding.Live.with.Cord.and.Tish.2018.1080p.AMZN.WEBRip.DDP2.0.x264-NTG.zip 0 金币 27.56K 63 次 13天前

#1楼
发帖时间:2020-10-18 20:38:14   |   回复数:0
游客组