travismk
一代宗师

[2020] [欧美] [其他] [WEB-720P] 大卫·伯恩的美国乌托邦 American.Utopia.2020.720p.AMZN.WEBRip.DDP5.1.x264-NTG 4.17GB

-->

帖子完整标题:大卫·伯恩的美国乌托邦 American.Utopia.2020.720p.AMZN.WEBRip.DDP5.1.x264-NTG 4.17GB



◎译  名 大卫·伯恩的美国乌托邦/American Utopia/美国乌托邦
◎片  名 David Byrne's American Utopia
◎年  代 2020
◎产  地 美国
◎类  别 纪录片 / 音乐 / 歌舞
◎语  言 英语
◎上映日期 2020-09-10(多伦多电影节) / 2020-10-17(美国)
◎IMDb评分 7.9/10 from 110 users
◎IMDb链接 https://www.imdb.com/title/tt11874226/
◎豆瓣评分 /10 from 0 users
◎豆瓣链接 https://movie.douban.com/subject/34961031/
◎片  长 135分钟
◎导  演 斯派克·李 Spike Lee
◎编  剧 大卫·伯恩 David Byrne
◎主  演 大卫·伯恩 David Byrne

◎标  签 SpikeLee | 美国 | 2020 | 2020s | 音乐剧 | HBO | 纪录片 | Documentary

◎简  介

  斯派克·李将为百老汇舞台剧《大卫·伯恩的美国乌托邦》执导电影版。该剧目已在去年10月开演,持续到今年2月16日。电影版计划于今年上映。

Video
ID : 1
Format : AVC
Format/Info : Advanced Video Codec
Format profile : [email protected]
Format settings : CABAC / 4 Ref Frames
Format settings, CABAC : Yes
Format settings, Reference frames : 4 frames
Codec ID : V_MPEG4/ISO/AVC
Duration : 1 h 45 min
Bit rate mode : Constant
Bit rate : 5 020 kb/s
Nominal bit rate : 6 000 kb/s
Width : 1 280 pixels
Height : 720 pixels
Display aspect ratio : 16:9
Frame rate mode : Constant
Frame rate : 23.976 (24000/1001/189150) FPS
Color space : YUV
Chroma subsampling : 4:2:0
Bit depth : 8 bits
Scan type : Progressive
Bits/(Pixel*Frame) : 0.227
Stream size : 3.69 GiB (89%)
Default : Yes
Forced : No
Color range : Limited
Color primaries : BT.709
Transfer characteristics : BT.709
Matrix coefficients : BT.709

Audio
ID : 2
Format : E-AC-3
Format/Info : Enhanced AC-3
Commercial name : Dolby Digital Plus
Codec ID : A_EAC3
Duration : 1 h 45 min
Bit rate mode : Constant
Bit rate : 640 kb/s
Channel(s) : 6 channels
Channel layout : L R C LFE Ls Rs
Sampling rate : 48.0 kHz
Frame rate : 31.250 FPS (1536 SPF)
Compression mode : Lossy
Delay relative to video : 28 ms
Stream size : 482 MiB (11%)
Language : English
Service kind : Complete Main
Default : Yes
Forced : No

Text #1
ID : 3
Format : UTF-8
Codec ID : S_TEXT/UTF8
Codec ID/Info : UTF-8 Plain Text
Duration : 1 h 43 min
Bit rate : 62 b/s
Count of elements : 1491
Stream size : 47.3 KiB (0%)
Language : English
Default : No
Forced : No

Text #2
ID : 4
Format : UTF-8
Codec ID : S_TEXT/UTF8
Codec ID/Info : UTF-8 Plain Text
Duration : 1 h 44 min
Bit rate : 66 b/s
Count of elements : 1641
Stream size : 50.6 KiB (0%)
Title : SDH
Language : English
Default : No
Forced : No





1 个附件 售价 大小 下载 时间

American.Utopia.2020.720p.AMZN.WEBRip.DDP5.1.x264-NTG.zip 0 金币 42.34K 70 次 13天前

#1楼
发帖时间:2020-10-18 20:49:43   |   回复数:0
游客组