travismk
一代宗师

[2016] [欧美] [剧情] [WEB-1080P] 西弗吉尼亚的故事/西弗吉尼亞的故事 West.Virginia.Stories.2016.1080p.AMZN.WEBRip.DDP5.1.x264-Candi

-->

帖子完整标题:西弗吉尼亚的故事/西弗吉尼亞的故事 West.Virginia.Stories.2016.1080p.AMZN.WEBRip.DDP5.1.x264-Candial 2.73GB



◎译  名 西弗吉尼亚的故事/西弗吉尼亞的故事(台)
◎片  名 West Virginia Stories
◎年  代 2016
◎产  地 美国
◎类  别 剧情
◎语  言 英语
◎上映日期 2016-08-29(美国)
◎IMDb评分 6.9/10 from 428 users
◎IMDb链接 https://www.imdb.com/title/tt4525888/
◎豆瓣评分 /10 from 0 users
◎豆瓣链接 https://movie.douban.com/subject/35005377/
◎主  演 扎克瑞·雷·谢尔曼 Zachary Ray Sherman

◎简  介

  西弗吉尼亞的小鎮上所發生的三個故事,主要探討人與人之間的關係及連結,第一個故事主角為道格,他有著不為人知的過去,第二個故事主角米契第一次帶女友回鎮上與自己的父親見面的故事,第三個故事是鎮長的故事,喬是一個沈默寡言的人。

Video
ID : 1
Format : AVC
Format/Info : Advanced Video Codec
Format profile : [email protected]
Format settings : CABAC / 4 Ref Frames
Format settings, CABAC : Yes
Format settings, Reference frames : 4 frames
Codec ID : V_MPEG4/ISO/AVC
Duration : 1 h 28 min
Bit rate : 3 781 kb/s
Width : 1 920 pixels
Height : 816 pixels
Display aspect ratio : 2.35:1
Frame rate mode : Constant
Frame rate : 23.976 (24000/1001/189150) FPS
Color space : YUV
Chroma subsampling : 4:2:0
Bit depth : 8 bits
Scan type : Progressive
Bits/(Pixel*Frame) : 0.101
Stream size : 2.34 GiB (85%)
Language : English
Default : Yes
Forced : No
Color range : Limited
Color primaries : BT.709
Transfer characteristics : BT.709
Matrix coefficients : BT.709

Audio
ID : 2
Format : E-AC-3
Format/Info : Enhanced AC-3
Commercial name : Dolby Digital Plus
Codec ID : A_EAC3
Duration : 1 h 28 min
Bit rate mode : Constant
Bit rate : 640 kb/s
Channel(s) : 6 channels
Channel layout : L R C LFE Ls Rs
Sampling rate : 48.0 kHz
Frame rate : 31.250 FPS (1536 SPF)
Compression mode : Lossy
Stream size : 405 MiB (14%)
Language : English
Service kind : Complete Main
Default : Yes
Forced : No

Text
ID : 3
Format : UTF-8
Codec ID : S_TEXT/UTF8
Codec ID/Info : UTF-8 Plain Text
Duration : 1 h 26 min
Bit rate : 46 b/s
Count of elements : 1128
Stream size : 29.1 KiB (0%)
Language : English
Default : Yes
Forced : No





1 个附件 售价 大小 下载 时间

West.Virginia.Stories.2016.1080p.AMZN.WEBRip.DDP5.1.x264-Candial.zip 0 金币 28.02K 91 次 13天前

#1楼
发帖时间:2020-10-18 22:35:51   |   回复数:0
游客组