travismk
一代宗师

[更 早] [其他] [剧情] [BD-1080P] 第九突击队 The.9th.Company.2005.1080p.BluRay.x264-Japhson 10.94GB

-->

帖子完整标题:第九突击队 The.9th.Company.2005.1080p.BluRay.x264-Japhson 10.94GB



◎译  名 第九突击队/9th Company/第9军团(港)/第九纵队/第九连
◎片  名 9 рота
◎年  代 2005
◎产  地 芬兰,俄罗斯,乌克兰
◎类  别 剧情 / 历史 / 战争
◎语  言 俄语
◎上映日期 2005-09-29
◎IMDb评分 7.1/10 from 19766 users
◎IMDb链接 https://www.imdb.com/title/tt0417397/
◎豆瓣评分 7.4/10 from 5936 users
◎豆瓣链接 https://movie.douban.com/subject/1438938/
◎片  长 139 分钟
◎导  演 费奥多尔·邦达尔丘克 Fyodor Bondarchuk
◎主  演 费奥多尔·邦达尔丘克 Fyodor Bondarchuk
      阿雷克西·查多夫 Aleksey Chadov
      康斯坦丁·克留科夫 Konstantin Kryukov
      阿马杜·马马达科夫 Amadu Mamadakov
      米哈伊尔·埃夫拉诺夫 Mikhail Evlanov
      斯维特兰娜·伊万诺娃 Svetlana Ivanova
      伊琳娜·拉赫曼诺娃 Irina Rakhmanova
      Mikhail Vladimirov
      亚历山大·巴希罗夫 Aleksandr Bashirov
      阿列克谢·谢列布里亚科夫 Aleksey Serebryakov
      阿列克谢·克拉夫琴科 Aleksey Kravchenko
      安德烈·克拉斯科 Andrey Krasko
      亚历山大·里科夫 Aleksandr Lykov
      米哈伊尔·波列琴科夫 Mikhail Porechenkov
      Dmitriy Mukhamadeev
      米哈伊尔·叶夫列莫夫 Mikhail Efremov
      斯坦尼斯拉夫·戈沃鲁辛 Stanislav Govorukhin

◎标  签 战争 | 俄罗斯 | 阿富汗战争 | 俄罗斯电影 | 第九突击队 | 阿富汗 | 2005 | 动作

◎简  介

  影片根据真实故事改编,以苏联入侵阿富汗事件为背景。1987年到1989年期间,阿富汗战场异常惨烈。由于穆斯林的强烈抵抗,苏联在阿富汗损兵折将,死伤无数。
  
  西伯利亚克拉斯诺亚尔斯克,六名新兵应征入伍,以协助前线战斗。他们接受严苛的魔鬼训练,进行各种特种培训。1987年末,这支奇兵组成“第九突击队”前往阿富汗,受命占据3234高地,以掩护苏联士兵撤退。第九突击队保护苏军大部队安全通过,而自己却弹尽粮绝。血腥而残酷的战场上,他们视死如归的身影显得异常悲壮。

Video
ID : 1
Format : AVC
Format/Info : Advanced Video Codec
Format profile : [email protected]
Format settings : CABAC / 5 Ref Frames
Format settings, CABAC : Yes
Format settings, Reference frames : 5 frames
Codec ID : V_MPEG4/ISO/AVC
Duration : 2 h 19 min
Bit rate : 9 735 kb/s
Width : 1 920 pixels
Height : 768 pixels
Display aspect ratio : 2.500
Frame rate mode : Constant
Frame rate : 23.976 FPS
Color space : YUV
Chroma subsampling : 4:2:0
Bit depth : 8 bits
Scan type : Progressive
Bits/(Pixel*Frame) : 0.275
Stream size : 9.25 GiB (85%)
Writing library : x264 core 65 r1028M 83baa7f
Encoding settings : cabac=1 / ref=5 / deblock=1:-1:-1 / analyse=0x3:0x113 / me=umh / subme=7 / psy_rd=1.0:0.0 / mixed_ref=1 / me_range=16 / chroma_me=1 / trellis=2 / 8x8dct=1 / cqm=0 / deadzone=21,11 / chroma_qp_offset=-2 / threads=12 / nr=0 / decimate=1 / mbaff=0 / bframes=3 / b_pyramid=0 / b_adapt=2 / b_bias=0 / direct=3 / wpredb=1 / keyint=250 / keyint_min=25 / scenecut=40(pre) / rc=2pass / bitrate=9735 / ratetol=1.0 / qcomp=0.60 / qpmin=10 / qpmax=51 / qpstep=4 / cplxblur=20.0 / qblur=0.5 / vbv_maxrate=50000 / vbv_bufsize=50000 / ip_ratio=1.40 / pb_ratio=1.30 / aq=1:1.00
Language : Russian
Default : Yes
Forced : No

Audio
ID : 2
Format : DTS
Format/Info : Digital Theater Systems
Codec ID : A_DTS
Duration : 2 h 19 min
Bit rate mode : Constant
Bit rate : 1 509 kb/s
Channel(s) : 6 channels
Channel layout : C L R Ls Rs LFE
Sampling rate : 48.0 kHz
Frame rate : 93.750 FPS (512 SPF)
Bit depth : 16 bits
Compression mode : Lossy
Stream size : 1.47 GiB (13%)
Language : Russian
Default : Yes
Forced : No

Text
ID : 3
Format : UTF-8
Codec ID : S_TEXT/UTF8
Codec ID/Info : UTF-8 Plain Text
Language : English
Default : Yes
Forced : No





1 个附件 售价 大小 下载 时间

The.9th.Company.2005.1080p.BluRay.x264-Japhson.zip 0 金币 55.34K 1484 次 1月前

#1楼
发帖时间:2021-01-13 08:59:34   |   回复数:1
kola13
武林盟主
感谢分享
1月前 #2楼
游客组