travismk
一代宗师

[更 早] [欧美] [喜剧] [BD-1080P] 公海上的罗曼史 Romance.on.the.High.Seas.1948.1080p.BluRay.x264.FLAC.2.0-HANDJOB 7.85GB

-->

帖子完整标题:公海上的罗曼史 Romance.on.the.High.Seas.1948.1080p.BluRay.x264.FLAC.2.0-HANDJOB 7.85GB



◎译  名 公海上的罗曼史/It's magic
◎片  名 Romance on the High Seas
◎年  代 1948
◎产  地 美国
◎类  别 喜剧 / 爱情 / 歌舞
◎语  言 英语
◎上映日期 1948-07-03
◎IMDb评分 7/10 from 1916 users
◎IMDb链接 https://www.imdb.com/title/tt0040745/
◎豆瓣评分 /10 from 0 users
◎豆瓣链接 https://movie.douban.com/subject/2142996/
◎片  长 99 分钟
◎导  演 迈克尔·柯蒂兹 Michael Curtiz / 巴斯比·伯克利 Busby Berkeley
◎编  剧 朱利叶斯·J·爱泼斯坦 Julius J. Epstein / 菲利普·G·爱泼斯坦 Philip G. Epstein / I·A·L·戴蒙德 I.A.L. Diamond / 西斯托·庞达尔·里奥斯 Sixto Pondal Ríos
◎主  演 杰克·卡森 Jack Carson
      简妮丝·佩吉 Janis Paige
      唐·德福 Don DeFore
      多丽丝·黛 Doris Day
      奥斯卡·黎凡特 Oscar Levant
      S·Z·萨卡尔 S.Z. Sakall
      福图尼奥·博纳诺瓦 Fortunio Bonanova
      埃里克·布洛尔 Eric Blore
      富兰克林·潘伯恩 Franklin Pangborn
      莱斯利·布鲁克斯 Leslie Brooks
      威廉·贝克韦尔 William Bakewell
      约翰伯克斯 John Berkes
      埃文·朗 Avon Long
      佩奇·卡瓦诺 Page Cavanaugh
      兰斯洛特爵士 Sir Lancelot
      约翰·阿尔文 John Alvin
      约翰·阿诺尔德 John Arnold
      卡洛斯·巴布 Carlos Barbe
      芭芭拉·贝茨 Barbara Bates
      玛丽·贝努瓦 Mary Benoit
      乔治·博伊斯 George Boyce
      伦纳德·布雷门 Leonard Bremen
      惠顿·钱伯斯 Wheaton Chambers
      特利斯特拉姆·科芬 Tristram Coffin
      G·帕特·柯林斯 G. Pat Collins
      基诺科拉多 Gino Corrado
      弗兰克·达埃 Frank Dae
      杰伊·伊顿 Jay Eaton
      玛丽·菲尔德 Mary Field
      贝丝·弗劳尔斯 Bess Flowers
      桑德拉·古尔德 Sandra Gould
      山姆·哈里斯 Sam Harris
      约翰·霍兰 John Holland
      斯图尔特·霍姆斯 Stuart Holmes
      埃默里·约翰逊 Emory Johnson
      道格拉斯肯尼迪 Douglas Kennedy
      奥托·克鲁格 Otto Kruger
      Ruth Lewis
      Wilbur Mack
      Frank McClure
      哈罗德·米勒 Harold Miller
      雷·蒙哥马利 Ray Montgomery
      乔治·N·奈泽 George N. Neise
      万皮拉 Vampira
      Eddie Parks
      Larry Rio
      Ramon Ros
      Frank J. Scannell
      斯考特西顿 Scott Seaton
      Cyril Smith
      特德·斯坦霍普 Ted Stanhope
      格雷迪·萨顿 Grady Sutton
      George Suzanne

◎标  签 美国 | 爱情 | 歌舞 | 喜剧 | 1940s | D迈克尔·柯蒂斯 | DorisDay | 迈克尔·柯蒂斯

◎简  介

  社交名士Elvira Kent怀疑她的丈夫正在背对着她与其她女人鬼混。当他提出他不能按照原定计划与她一起出海旅行,她雇用了一个夜总会歌手,Georgia Garrett安排她在巡游之中。Elvira住在一个靠近家的旅馆,这样她就能监视她的丈夫。她没有觉查到的是,她的丈夫已经雇用了一个私人侦探Peter Virgil监视她在海上的一举一动。当然,Peter并没有意识到Georgia不是Kent夫人……

◎获奖情况

  第21届奥斯卡金像奖 ?(1949)
  歌舞片最佳配乐(提名) 雷·海因多夫
  最佳原创歌曲(提名) 萨米·卡恩?/?朱尔·斯泰恩

Video
ID : 1
Format : AVC
Format/Info : Advanced Video Codec
Format profile : [email protected]
Format settings : CABAC / 5 Ref Frames
Format settings, CABAC : Yes
Format settings, Reference frames : 5 frames
Codec ID : V_MPEG4/ISO/AVC
Duration : 1 h 39 min
Bit rate : 10.9 Mb/s
Width : 1 478 pixels
Height : 1 080 pixels
Display aspect ratio : 4:3
Frame rate mode : Constant
Frame rate : 23.976 (24000/1001/189150) FPS
Color space : YUV
Chroma subsampling : 4:2:0
Bit depth : 8 bits
Scan type : Progressive
Bits/(Pixel*Frame) : 0.286
Stream size : 7.56 GiB (96%)
Writing library : x264 core 148
Encoding settings : cabac=1 / ref=5 / deblock=1:-3:-3 / analyse=0x3:0x133 / me=umh / subme=10 / psy=1 / psy_rd=1.00:0.00 / mixed_ref=1 / me_range=32 / chroma_me=1 / trellis=2 / 8x8dct=1 / cqm=0 / deadzone=21,11 / fast_pskip=0 / chroma_qp_offset=-2 / threads=12 / lookahead_threads=3 / sliced_threads=0 / nr=0 / decimate=0 / interlaced=0 / bluray_compat=0 / constrained_intra=0 / bframes=16 / b_pyramid=2 / b_adapt=2 / b_bias=0 / direct=3 / weightb=1 / open_gop=0 / weightp=2 / keyint=240 / keyint_min=24 / scenecut=40 / intra_refresh=0 / rc_lookahead=60 / rc=crf / mbtree=0 / crf=21.0 / qcomp=0.60 / qpmin=0 / qpmax=69 / qpstep=4 / vbv_maxrate=62500 / vbv_bufsize=78125 / crf_max=0.0 / nal_hrd=none / filler=0 / ip_ratio=1.40 / pb_ratio=1.30 / aq=2:1.00
Default : Yes
Forced : No
Color range : Limited
Color primaries : BT.709
Transfer characteristics : BT.709
Matrix coefficients : BT.709

Audio
ID : 2
Format : FLAC
Format/Info : Free Lossless Audio Codec
Codec ID : A_FLAC
Duration : 1 h 39 min
Bit rate mode : Variable
Bit rate : 408 kb/s
Channel(s) : 2 channels
Sampling rate : 48.0 kHz
Frame rate : 11.719 FPS (4096 SPF)
Bit depth : 16 bits
Compression mode : Lossless
Stream size : 289 MiB (4%)
Writing library : libFLAC 1.2.1 (UTC 2007-09-17)
Language : English
Default : Yes
Forced : No

Text #1
ID : 3
Format : UTF-8
Codec ID : S_TEXT/UTF8
Codec ID/Info : UTF-8 Plain Text
Duration : 1 h 36 min
Bit rate : 81 b/s
Count of elements : 1567
Stream size : 57.4 KiB (0%)
Language : English
Default : No
Forced : No

Text #2
ID : 4
Format : UTF-8
Codec ID : S_TEXT/UTF8
Codec ID/Info : UTF-8 Plain Text
Duration : 1 h 38 min
Bit rate : 98 b/s
Count of elements : 1964
Stream size : 71.1 KiB (0%)
Title : SDH
Language : English
Default : No
Forced : No

Menu
00:00:00.000 : en:Chapter 01
00:01:16.076 : en:Chapter 02
00:03:25.122 : en:Chapter 03
00:05:42.842 : en:Chapter 04
00:10:09.275 : en:Chapter 05
00:12:30.750 : en:Chapter 06
00:13:38.234 : en:Chapter 07
00:16:22.815 : en:Chapter 08
00:20:13.379 : en:Chapter 09
00:23:36.415 : en:Chapter 10
00:28:50.854 : en:Chapter 11
00:32:33.785 : en:Chapter 12
00:34:04.668 : en:Chapter 13
00:36:32.857 : en:Chapter 14
00:37:10.770 : en:Chapter 15
00:39:35.123 : en:Chapter 16
00:42:22.498 : en:Chapter 17
00:43:45.790 : en:Chapter 18
00:46:44.010 : en:Chapter 19
00:50:55.761 : en:Chapter 20
00:53:27.955 : en:Chapter 21
00:54:55.751 : en:Chapter 22
00:55:24.988 : en:Chapter 23
00:57:53.387 : en:Chapter 24
01:00:23.286 : en:Chapter 25
01:03:55.832 : en:Chapter 26
01:04:57.519 : en:Chapter 27
01:06:41.664 : en:Chapter 28
01:10:43.281 : en:Chapter 29
01:15:53.924 : en:Chapter 30
01:17:52.084 : en:Chapter 31
01:18:57.524 : en:Chapter 32
01:20:09.972 : en:Chapter 33
01:24:38.282 : en:Chapter 34
01:29:29.948 : en:Chapter 35
01:31:45.959 : en:Chapter 36
01:34:22.365 : en:Chapter 37
01:35:40.860 : en:Chapter 38
01:38:30.571 : en:Chapter 39





1 个附件 售价 大小 下载 时间

Romance.on.the.High.Seas.1948.1080p.BluRay.x264.FLAC.2.0-HANDJOB.zip 0 金币 39.93K 266 次 1月前

#1楼
发帖时间:2021-01-13 09:52:26   |   回复数:0
游客组