travismk
一代宗师

[2006] [欧美] [剧情] [WEB-1080P] 与她在一起 Alone.with.Her.2006.1080p.AMZN.WEBRip.DDP5.1.x264-NTG 5.51GB

-->

帖子完整标题:与她在一起 Alone.with.Her.2006.1080p.AMZN.WEBRip.DDP5.1.x264-NTG 5.51GB



◎译  名 与她在一起
◎片  名 Alone with Her
◎年  代 2006
◎产  地 美国
◎类  别 剧情 / 惊悚 / 犯罪
◎语  言 英语,西班牙语
◎上映日期 2006-04-28
◎IMDb评分 6/10 from 3793 users
◎IMDb链接 https://www.imdb.com/title/tt0472259/
◎豆瓣评分 6.2/10 from 383 users
◎豆瓣链接 https://movie.douban.com/subject/1962779/
◎片  长 78 分钟
◎导  演 埃里克·尼古拉斯 Eric Nicholas
◎编  剧 埃里克·尼古拉斯 Eric Nicholas
◎主  演 科林·汉克斯 Colin Hanks
      乔纳森·特兰 Jonathon Trent
      乔丹娜·斯皮罗 Jordana Spiro
      安娜·克劳迪亚·塔兰孔 Ana Claudia Talancón
      Christina Sauvé
      艾喜丽麦卡锡 Ashley McCarthy

◎标  签 美国 | 偷窥 | 惊悚 | 人性 | 犯罪 | 2006 | 美国电影 | 独立

◎简  介

  偷窥是道格(科林·汉克斯 Colin Hanks饰)生活中的重要部分。他曾经在情路上受伤,希望能找到厮守终生的人,艾米(安娜·克劳迪亚·塔兰康 Ana Claudia Talancón饰)就是他的目标。他用隐秘的摄像头摄下她生活中的一举一动,通过偷窥去还原艾米生活的形状,再伺机接近她。于是,艾米的私人生活就这样毫无遮掩地呈现在镜头面前。
  
  由于掌握了艾米的生活,道格可以轻而易举的展开追求攻势。然而情敌出现了,他就是艾米的同事马特(乔纳森·特兰 Jonathon Trent饰)。道格一再阻止二人的约会,直到终于有了良机,让自己现身于摄像头前,真正闯入艾米的视线当中。一番设计下,道格终于能够让艾米接受自己。然而,道格偷窥的秘密、疯狂的爱意和扭曲的人格,将会给艾米的生活带来毁灭性的灾难。

Video
ID : 1
Format : AVC
Format/Info : Advanced Video Codec
Format profile : [email protected]
Format settings : CABAC / 4 Ref Frames
Format settings, CABAC : Yes
Format settings, Reference frames : 4 frames
Codec ID : V_MPEG4/ISO/AVC
Duration : 1 h 21 min
Bit rate mode : Constant
Bit rate : 9 065 kb/s
Nominal bit rate : 10 000 kb/s
Width : 1 920 pixels
Height : 1 080 pixels
Display aspect ratio : 16:9
Frame rate mode : Constant
Frame rate : 23.976 (24000/1001/189150) FPS
Color space : YUV
Chroma subsampling : 4:2:0
Bit depth : 8 bits
Scan type : Progressive
Bits/(Pixel*Frame) : 0.182
Stream size : 5.15 GiB (93%)
Default : Yes
Forced : No
Color range : Limited
Color primaries : BT.709
Transfer characteristics : BT.709
Matrix coefficients : BT.709

Audio
ID : 2
Format : E-AC-3
Format/Info : Enhanced AC-3
Commercial name : Dolby Digital Plus
Codec ID : A_EAC3
Duration : 1 h 21 min
Bit rate mode : Constant
Bit rate : 640 kb/s
Channel(s) : 6 channels
Channel layout : L R C LFE Ls Rs
Sampling rate : 48.0 kHz
Frame rate : 31.250 FPS (1536 SPF)
Compression mode : Lossy
Stream size : 372 MiB (7%)
Language : English
Service kind : Complete Main
Default : Yes
Forced : No

Text #1
ID : 3
Format : UTF-8
Codec ID : S_TEXT/UTF8
Codec ID/Info : UTF-8 Plain Text
Duration : 1 h 12 min
Bit rate : 51 b/s
Count of elements : 908
Stream size : 27.2 KiB (0%)
Language : English
Default : No
Forced : No

Text #2
ID : 4
Format : UTF-8
Codec ID : S_TEXT/UTF8
Codec ID/Info : UTF-8 Plain Text
Duration : 1 h 14 min
Bit rate : 54 b/s
Count of elements : 1041
Stream size : 29.9 KiB (0%)
Title : SDH
Language : English
Default : No
Forced : No





1 个附件 售价 大小 下载 时间

Alone.with.Her.2006.1080p.AMZN.WEBRip.DDP5.1.x264-NTG.zip 0 金币 28.24K 294 次 6天前

#1楼
发帖时间:2021-01-13 22:54:35   |   回复数:0
游客组