travismk
一代宗师

[2014] [其他] [剧情] [WEB-1080P] 香槟的一年 A.Year.in.Champagne.2014.1080p.AMZN.WEBRip.DDP5.1.x264-LPAIN 6.55GB

-->

帖子完整标题:香槟的一年 A.Year.in.Champagne.2014.1080p.AMZN.WEBRip.DDP5.1.x264-LPAIN 6.55GB



◎译  名 香槟的一年
◎片  名 A Year in Champagne
◎年  代 2014
◎产  地 美国,法国
◎类  别 剧情 / 纪录片
◎语  言 英语
◎上映日期 2015-03-06
◎IMDb评分 6.5/10 from 453 users
◎IMDb链接 https://www.imdb.com/title/tt3544048/
◎豆瓣评分 7.9/10 from 77 users
◎豆瓣链接 https://movie.douban.com/subject/26303268/
◎片  长 82分钟

◎标  签 纪录片 | 葡萄酒 | 法国 | wine | 美国 | 2014 | 饮食 | Food

◎简  介

  暂无相关剧情介绍

Video
ID : 1
Format : AVC
Format/Info : Advanced Video Codec
Format profile : [email protected]
Format settings : CABAC / 4 Ref Frames
Format settings, CABAC : Yes
Format settings, Reference frames : 4 frames
Codec ID : V_MPEG4/ISO/AVC
Duration : 1 h 22 min
Bit rate : 10.7 Mb/s
Width : 1 920 pixels
Height : 1 080 pixels
Display aspect ratio : 16:9
Frame rate mode : Constant
Frame rate : 24.000 FPS
Color space : YUV
Chroma subsampling : 4:2:0
Bit depth : 8 bits
Scan type : Progressive
Bits/(Pixel*Frame) : 0.216
Stream size : 6.18 GiB (94%)
Language : English
Default : Yes
Forced : No
Color range : Limited
Color primaries : BT.709
Transfer characteristics : BT.709
Matrix coefficients : BT.709

Audio
ID : 2
Format : E-AC-3
Format/Info : Enhanced AC-3
Commercial name : Dolby Digital Plus
Codec ID : A_EAC3
Duration : 1 h 22 min
Bit rate mode : Constant
Bit rate : 640 kb/s
Channel(s) : 6 channels
Channel layout : L R C LFE Ls Rs
Sampling rate : 48.0 kHz
Frame rate : 31.250 FPS (1536 SPF)
Compression mode : Lossy
Stream size : 377 MiB (6%)
Language : English
Service kind : Complete Main
Default : Yes
Forced : No

Text
ID : 3
Format : UTF-8
Codec ID : S_TEXT/UTF8
Codec ID/Info : UTF-8 Plain Text
Duration : 1 h 20 min
Bit rate : 34 b/s
Count of elements : 599
Stream size : 20.3 KiB (0%)
Language : English
Default : Yes
Forced : No





1 个附件 售价 大小 下载 时间

A.Year.in.Champagne.2014.1080p.AMZN.WEBRip.DDP5.1.x264-LPAIN.zip 0 金币 33.43K 511 次 6天前

#1楼
发帖时间:2021-01-13 22:56:42   |   回复数:0
游客组