travismk
一代宗师

[更 早] [日本] [剧情] [WEB-1080P] 横滨暗黑街:机枪之龙 The.Machine.Gun.Dragon.1976.JAPANESE.1080p.AMZN.WEBRip.DDP2.0.x264-Sb

-->

帖子完整标题:横滨暗黑街:机枪之龙 The.Machine.Gun.Dragon.1976.JAPANESE.1080p.AMZN.WEBRip.DDP2.0.x264-SbR 8.21GB



◎译  名 横滨暗黑街:机枪之龙
◎片  名 横浜暗黒街 マシンガンの竜
◎年  代 1976
◎产  地 日本
◎类  别 剧情 / 动作 / 犯罪
◎语  言 日语
◎上映日期 1976-02-28(日本)
◎IMDb评分 6.6/10 from 41 users
◎IMDb链接 https://www.imdb.com/title/tt0204748/
◎豆瓣评分 /10 from 0 users
◎豆瓣链接 https://movie.douban.com/subject/3172381/
◎片  长 94 分钟
◎主  演 菅原文太 Bunta Sugawara
      中岛裕 Yutaka Nakajima
      小池朝雄 Asao Koike
      中野英治 Eiji Nakano
      田中邦卫 Kunie Tanaka
      三益爱子 Aiko Mimasu
      千叶真一 Sonny Chiba
      江波杏子 Ky?ko Enami

◎标  签 日本电影 | 犯罪 | 日本 | 动作 | 暴力 | 剧情 | 中岛裕 | 枪战

◎简  介

  Ryu, a low life thug, along with his mother, steals a shipment of drugs. Now with
  
  his machine gun and a gang of hoodlums, he must face the yakuza and the
  
  mafia. Not only does this great yakuza action flick star Sonny Chiba but also his
  
  brother, Jiro.

Video
ID : 1
Format : AVC
Format/Info : Advanced Video Codec
Format profile : [email protected]
Format settings : CABAC / 4 Ref Frames
Format settings, CABAC : Yes
Format settings, Reference frames : 4 frames
Codec ID : V_MPEG4/ISO/AVC
Duration : 1 h 33 min
Bit rate : 12.3 Mb/s
Width : 1 920 pixels
Height : 816 pixels
Display aspect ratio : 2.35:1
Frame rate mode : Constant
Frame rate : 23.976 (24000/1001/189150) FPS
Color space : YUV
Chroma subsampling : 4:2:0
Bit depth : 8 bits
Scan type : Progressive
Bits/(Pixel*Frame) : 0.329
Stream size : 8.06 GiB (98%)
Language : Japanese
Default : Yes
Forced : No
Color range : Limited
Color primaries : BT.709
Transfer characteristics : BT.709
Matrix coefficients : BT.709

Audio
ID : 2
Format : E-AC-3
Format/Info : Enhanced AC-3
Commercial name : Dolby Digital Plus
Codec ID : A_EAC3
Duration : 1 h 33 min
Bit rate mode : Constant
Bit rate : 224 kb/s
Channel(s) : 2 channels
Channel layout : L R
Sampling rate : 48.0 kHz
Frame rate : 31.250 FPS (1536 SPF)
Compression mode : Lossy
Stream size : 150 MiB (2%)
Title : Japanese
Language : Japanese
Service kind : Complete Main
Default : Yes
Forced : No

Text
ID : 3
Format : UTF-8
Codec ID : S_TEXT/UTF8
Codec ID/Info : UTF-8 Plain Text
Duration : 1 h 32 min
Bit rate : 21 b/s
Count of elements : 531
Stream size : 14.4 KiB (0%)
Language : English
Default : Yes
Forced : No





1 个附件 售价 大小 下载 时间

The.Machine.Gun.Dragon.1976.JAPANESE.1080p.AMZN.WEBRip.DDP2.0.x264-SbR.zip 0 金币 41.77K 420 次 5天前

#1楼
发帖时间:2021-01-14 11:58:27   |   回复数:0
游客组