travismk
一代宗师

[更 早] [欧美] [动作] [BD-1080P] 死亡的承诺 Death.Promise.1977.1080p.BluRay.x264.FLAC.1.0-HANDJOB 7.65GB

-->

帖子完整标题:死亡的承诺 Death.Promise.1977.1080p.BluRay.x264.FLAC.1.0-HANDJOB 7.65GB



◎译  名 死亡的承诺
◎片  名 Death Promise
◎年  代 1977
◎产  地 美国
◎类  别 动作
◎语  言 英语
◎上映日期 1977
◎IMDb评分 4.9/10 from 350 users
◎IMDb链接 https://www.imdb.com/title/tt0165214/
◎豆瓣评分 /10 from 0 users
◎豆瓣链接 https://movie.douban.com/subject/5098990/
◎片  长 95 分钟
◎主  演 刘永 Anthony Liu
      Stuart Warmflash

◎简  介

  暂无相关剧情介绍

Video
ID : 1
Format : AVC
Format/Info : Advanced Video Codec
Format profile : [email protected]
Format settings : CABAC / 4 Ref Frames
Format settings, CABAC : Yes
Format settings, Reference frames : 4 frames
Codec ID : V_MPEG4/ISO/AVC
Duration : 1 h 35 min
Bit rate : 11.1 Mb/s
Width : 1 920 pixels
Height : 1 036 pixels
Display aspect ratio : 1.85:1
Frame rate mode : Constant
Frame rate : 23.976 (24000/1001/189150) FPS
Color space : YUV
Chroma subsampling : 4:2:0
Bit depth : 8 bits
Scan type : Progressive
Bits/(Pixel*Frame) : 0.234
Stream size : 7.42 GiB (97%)
Writing library : x264 core 157 r2935 545de2f
Encoding settings : cabac=1 / ref=4 / deblock=1:-3:-3 / analyse=0x3:0x133 / me=umh / subme=10 / psy=1 / psy_rd=1.00:0.00 / mixed_ref=1 / me_range=32 / chroma_me=1 / trellis=2 / 8x8dct=1 / cqm=0 / deadzone=21,11 / fast_pskip=0 / chroma_qp_offset=-2 / threads=6 / lookahead_threads=1 / sliced_threads=0 / nr=0 / decimate=0 / interlaced=0 / bluray_compat=0 / constrained_intra=0 / bframes=16 / b_pyramid=2 / b_adapt=2 / b_bias=0 / direct=3 / weightb=1 / open_gop=0 / weightp=2 / keyint=240 / keyint_min=24 / scenecut=40 / intra_refresh=0 / rc_lookahead=60 / rc=crf / mbtree=0 / crf=21.8 / qcomp=0.60 / qpmin=0 / qpmax=69 / qpstep=4 / vbv_maxrate=62500 / vbv_bufsize=78125 / crf_max=0.0 / nal_hrd=none / filler=0 / ip_ratio=1.40 / pb_ratio=1.30 / aq=2:1.00
Default : Yes
Forced : No
Color range : Limited
Color primaries : BT.709
Transfer characteristics : BT.709
Matrix coefficients : BT.709

Audio
ID : 2
Format : FLAC
Format/Info : Free Lossless Audio Codec
Codec ID : A_FLAC
Duration : 1 h 35 min
Bit rate mode : Variable
Bit rate : 335 kb/s
Channel(s) : 1 channel
Sampling rate : 48.0 kHz
Frame rate : 11.719 FPS (4096 SPF)
Bit depth : 16 bits
Compression mode : Lossless
Stream size : 228 MiB (3%)
Writing library : libFLAC 1.2.1 (UTC 2007-09-17)
Language : English
Default : Yes
Forced : No

Text
ID : 3
Format : UTF-8
Codec ID : S_TEXT/UTF8
Codec ID/Info : UTF-8 Plain Text
Duration : 1 h 35 min
Bit rate : 65 b/s
Count of elements : 1512
Stream size : 45.8 KiB (0%)
Title : Hard of Hearing
Language : English
Default : No
Forced : No

Menu
00:00:00.000 : :Chapter 1
00:19:22.745 : :Chapter 2
00:37:36.755 : :Chapter 3
00:56:10.868 : :Chapter 4
01:17:16.173 : :Chapter 5





1 个附件 售价 大小 下载 时间

Death.Promise.1977.1080p.BluRay.x264.FLAC.1.0-HANDJOB.zip 0 金币 38.90K 259 次 8天前

#1楼
发帖时间:2021-04-08 08:56:49   |   回复数:0
游客组