travismk
一代宗师

[更 早] [日本] [剧情] [BD-4K] 大逃杀 Battle.Royale.2000.JAPANESE.DC.2160p.BluRay.x264.8bit.SDR.DTS-HD.MA.5.1-SWTY

-->

帖子完整标题:大逃杀 Battle.Royale.2000.JAPANESE.DC.2160p.BluRay.x264.8bit.SDR.DTS-HD.MA.5.1-SWTYBLZ 70.77GB



◎译  名 大逃杀/Battle Royale/东京圣战/圣战
◎片  名 バトル?ロワイアル
◎年  代 2000
◎产  地 日本
◎类  别 剧情 / 科幻 / 惊悚
◎语  言 日语
◎上映日期 2000-12-16(日本)
◎IMDb评分 7.6/10 from 171017 users
◎IMDb链接 https://www.imdb.com/title/tt0266308/
◎豆瓣评分 8.0/10 from 180204 users
◎豆瓣链接 https://movie.douban.com/subject/1292444/
◎片  长 114分钟
◎导  演 深作欣二 Kinji Fukasaku
◎编  剧 深作健太 Kenta Fukasaku / 高见广春 Koushun Takami
◎主  演 藤原龙也 Tatsuya Fujiwara
      前田亚季 Aki Maeda
      山本太郎 Tar? Yamamoto
      北野武 Takeshi Kitano
      栗山千明 Chiaki Kuriyama
      高冈奏辅 Sosuke Takaoka
      塚本高史 Takashi Tsukamoto
      小谷幸弘 Yukihiro Kotani
      石川绘里 Eri Ishikawa
      神谷凉 Sayaka Kamiya
      三村恭代 Takayo Mimura
      岛田礼 Yutaka Shimada
      井上亚纪 Aki Inoue
      松泽莲 Ren Matsuzawa
      本田博仁 Hirohito Honda
      新田亮 Ryou Nitta
      池田早矢加 Sayaka Ikeda
      永田杏奈 Anna Nagata
      金泽祐香利 Yukari Kanasawa
      加藤操 Misao Kato
      日向瞳 Hitomi Hyuga
      石井里弥 Satomi Ishii
      金井爱砂美 Asami Kanai
      花村怜美 Satomi Hanamura
      柴田阳亮 Yousuke Shibata
      乡志郎 Shir? G?
      增田裕生 Yuuki Masuda
      广川茂树 Shigeki Hirokawa
      三原珠纪 Tamaki Mihara
      岛木智实 Tomomi Shimaki
      佐野泰臣 Yasuomi Sano
      日下慎 Shin Kusaka
      西村豪起 Gouki Nishimura
      山口森广 Shigehiro Yamaguchi
      大西修 Osamu Ohnishi
      横道智 Satoshi Yokomichi
      内藤淳一 Junichi Naitou
      木下统耶子 Tsuyako Kinoshita
      关口真衣 Mai Sekiguchi
      马场乔子 Takako Baba
      野见山晴可 Haruka Nomiyama
      岩村爱子 Iwamura Aiko
      前田爱 Ai Maeda
      美波 Minami
      山村美智子 Michi Yamamura
      利根川寿寿花 Suzuka Tonegawa
      诹访太朗 Tar? Suwa
      片冈礼子 Reiko Kataoka
      谷口节 Takashi Taniguchi
      中井出健 Ken Nakaide
      深浦加奈子 Kanako Fukaura
      宫村优子 Y?ko Miyamura
      柴崎幸 Kou Shibasaki
      安藤政信 Masanobu And?
      伊尔琳·菲茨杰拉德 Erin Fitzgerald
      斯蒂芬妮·社 Stephanie Sheh
      John Snyder
      斯派克·斯潘塞 Spike Spencer
      Kaiji Tang
      Julie Ann Taylor
      芦川诚 Makoto Ashikawa

◎标  签 日本 | 北野武 | 暴力 | 人性 | 血腥 | 日本电影 | 大逃杀 | 深作欣二

◎简  介

  为了培养出忠实效忠于成人、在逆境中坚忍不拔的青少年一代,日本政府出台《BR》法案。每年都从全国学校随机抽出一个班级的同学,前往荒岛进行生存极限挑战——老师发给学生地图、粮食和各式武器,令他们自相残杀,直到存活下来的最后一个,才能离开荒岛。接下来,残酷的游戏规则和令人绝望的生存条件,使班级里的年轻人开始了相互杀戮。善良或者凶残,主动出击或者被动防守, 同学们开始了各自的计划,人性的丑恶在血腥的死亡中暴露无遗。
  
  大逃杀的游戏在荒岛上壮烈上演。究竟学生们的宿命如何,谁才是最后的存活者。

◎获奖情况

  第24届日本电影学院奖 ?(2001)
  最佳影片(提名)
  最佳导演(提名) 深作欣二
  最佳编剧(提名) 深作健太
  最佳男主角(提名) 藤原龙也
  最佳配乐(提名) 天野正道
  最佳录音(提名) 安藤邦男
  最佳剪辑 阿部浩英
  最佳新人 藤原龙也?/?前田亚季

Video
ID : 1
Format : AVC
Format/Info : Advanced Video Codec
Format profile : [email protected]
Format settings : CABAC / 5 Ref Frames
Format settings, CABAC : Yes
Format settings, Reference frames : 5 frames
Codec ID : V_MPEG4/ISO/AVC
Duration : 2 h 2 min
Bit rate : 78.0 Mb/s
Width : 3 840 pixels
Height : 2 076 pixels
Display aspect ratio : 1.85:1
Frame rate mode : Constant
Frame rate : 23.976 (24000/1001/189150) FPS
Color space : YUV
Chroma subsampling : 4:2:0
Bit depth : 8 bits
Scan type : Progressive
Bits/(Pixel*Frame) : 0.408
Stream size : 66.5 GiB (95%)
Writing library : x264 core 157 r2935 545de2f
Encoding settings : cabac=1 / ref=5 / deblock=1:-1:-1 / analyse=0x3:0x113 / me=umh / subme=10 / psy=1 / psy_rd=1.00:0.15 / mixed_ref=1 / me_range=48 / chroma_me=1 / trellis=2 / 8x8dct=1 / cqm=0 / deadzone=21,11 / fast_pskip=1 / chroma_qp_offset=-3 / threads=48 / lookahead_threads=4 / sliced_threads=0 / nr=0 / decimate=0 / interlaced=0 / bluray_compat=0 / constrained_intra=0 / bframes=3 / b_pyramid=2 / b_adapt=2 / b_bias=0 / direct=3 / weightb=1 / open_gop=0 / weightp=2 / keyint=250 / keyint_min=23 / scenecut=40 / intra_refresh=0 / rc_lookahead=50 / rc=crf / mbtree=1 / crf=18.0 / qcomp=0.60 / qpmin=0 / qpmax=69 / qpstep=4 / ip_ratio=1.40 / aq=1:1.00
Default : Yes
Forced : No

Audio #1
ID : 2
ID in the original source medium : 4352 (0x1100)
Format : DTS XLL
Format/Info : Digital Theater Systems
Commercial name : DTS-HD Master Audio
Codec ID : A_DTS
Duration : 2 h 2 min
Bit rate mode : Variable
Bit rate : 3 790 kb/s
Channel(s) : 6 channels
Channel layout : C L R Ls Rs LFE
Sampling rate : 48.0 kHz
Frame rate : 93.750 FPS (512 SPF)
Bit depth : 24 bits
Compression mode : Lossless
Stream size : 3.23 GiB (5%)
Title : DTS-HD MA 5.1
Language : Japanese
Default : Yes
Forced : No
Original source medium : Blu-ray

Audio #2
ID : 3
Format : AC-3
Format/Info : Audio Coding 3
Commercial name : Dolby Digital
Codec ID : A_AC3
Duration : 2 h 2 min
Bit rate mode : Constant
Bit rate : 640 kb/s
Channel(s) : 6 channels
Channel layout : L R C LFE Ls Rs
Sampling rate : 48.0 kHz
Frame rate : 31.250 FPS (1536 SPF)
Compression mode : Lossy
Stream size : 559 MiB (1%)
Title : DD 5.1
Language : Japanese
Service kind : Complete Main
Default : No
Forced : No

Text #1
ID : 4
Format : UTF-8
Codec ID : S_TEXT/UTF8
Codec ID/Info : UTF-8 Plain Text
Duration : 2 h 1 min
Bit rate : 34 b/s
Count of elements : 974
Stream size : 31.1 KiB (0%)
Title : English-SRT
Language : English
Default : Yes
Forced : No

Text #2
ID : 5
Format : UTF-8
Codec ID : S_TEXT/UTF8
Codec ID/Info : UTF-8 Plain Text
Duration : 2 h 1 min
Bit rate : 36 b/s
Count of elements : 1036
Stream size : 32.5 KiB (0%)
Title : English-SDH-SRT
Language : English
Default : No
Forced : No

Text #3
ID : 6
ID in the original source medium : 4768 (0x12A0)
Format : PGS
Muxing mode : zlib
Codec ID : S_HDMV/PGS
Codec ID/Info : Picture based subtitle format used on BDs/HD-DVDs
Duration : 2 h 1 min
Bit rate : 24.5 kb/s
Count of elements : 2074
Stream size : 21.3 MiB (0%)
Title : English-PGS
Language : English
Default : No
Forced : No
Original source medium : Blu-ray

Menu
00:00:00.000 : Chapter 01
00:08:51.364 : Chapter 02
00:20:53.335 : Chapter 03
00:29:34.564 : Chapter 04
00:41:07.798 : Chapter 05
00:49:43.689 : Chapter 06
00:57:39.497 : Chapter 07
01:08:41.992 : Chapter 08
01:19:30.390 : Chapter 09
01:34:36.629 : Chapter 10
01:43:22.196 : Chapter 11
01:52:30.660 : Chapter 12





1 个附件 售价 大小 下载 时间

Battle.Royale.2000.JAPANESE.DC.2160p.BluRay.x264.8bit.SDR.DTS-HD.MA.5.1-SWTYBLZ.torrent 0 金币 177.66K 679 次 1月前

#1楼
发帖时间:2021-05-13 20:41:16   |   回复数:1
ken.sting
一派掌门
感谢楼主分享精彩资源!
1月前 #2楼
游客组