travismk
一代宗师

[2009] [日本] [剧情] [WEB-1080P] 飞上长空 Rise.Up.2009.JAPANESE.1080p.WEBRip.x264-VXT 1.61GB

-->

帖子完整标题:飞上长空 Rise.Up.2009.JAPANESE.1080p.WEBRip.x264-VXT 1.61GB



◎译  名 飞上长空/ライズアップ
◎片  名 RISE UP
◎年  代 2009
◎产  地 日本
◎类  别 剧情 / 爱情
◎语  言 日语
◎上映日期 2009-11-21(日本)
◎豆瓣评分 6.3/10 from 279 users
◎豆瓣链接 https://movie.douban.com/subject/3765645/
◎片  长 84分钟
◎主  演 林遣都 Kento Hayashi
      山下莉绪 Rio Yamashita
      青木崇高 Munetaka Aoki
      仲野太贺 Taiga Nagano

◎标  签 日本电影 | 林遣都 | 日本 | 青春 | 爱情 | 2009 | 山下リオ | 电影

◎简  介

  パラグライダーに夢中な少年?航は、ある日、ひき逃げ事故により失明してしまった少女?ルイに出会う。初めは心を閉ざしていたルイも、パラグライダーに情熱を注ぐ航に次第に惹かれていく。しかし、2人の間には残酷な過去が隠されていた。主演は「バッテリー」「ダイブ!!」の林遣都、「MW ムウ」の山下リオ。

Video
ID : 1
Format : AVC
Format/Info : Advanced Video Codec
Format profile : [email protected]
Format settings : CABAC / 4 Ref Frames
Format settings, CABAC : Yes
Format settings, Reference frames : 4 frames
Codec ID : avc1
Codec ID/Info : Advanced Video Coding
Duration : 1 h 24 min
Bit rate : 2 500 kb/s
Width : 1 920 pixels
Height : 1 080 pixels
Display aspect ratio : 16:9
Frame rate mode : Constant
Frame rate : 29.970 (29970/1000/189150) FPS
Color space : YUV
Chroma subsampling : 4:2:0
Bit depth : 8 bits
Scan type : Progressive
Bits/(Pixel*Frame) : 0.040
Stream size : 1.48 GiB (91%)
Writing library : x264 core 152 r2851M ba24899
Encoding settings : cabac=1 / ref=4 / deblock=1:-1:-1 / analyse=0x3:0x113 / me=umh / subme=9 / psy=1 / psy_rd=1.00:0.15 / mixed_ref=1 / me_range=24 / chroma_me=1 / trellis=2 / 8x8dct=1 / cqm=0 / deadzone=21,11 / fast_pskip=1 / chroma_qp_offset=-3 / threads=16 / lookahead_threads=4 / sliced_threads=0 / nr=0 / decimate=1 / interlaced=0 / bluray_compat=0 / constrained_intra=0 / bframes=3 / b_pyramid=2 / b_adapt=2 / b_bias=0 / direct=3 / weightb=1 / open_gop=0 / weightp=2 / keyint=250 / keyint_min=25 / scenecut=40 / intra_refresh=0 / rc_lookahead=50 / rc=2pass / mbtree=1 / bitrate=2500 / ratetol=1.0 / qcomp=0.60 / qpmin=0 / qpmax=69 / qpstep=4 / cplxblur=20.0 / qblur=0.5 / vbv_maxrate=31250 / vbv_bufsize=31250 / nal_hrd=none / filler=0 / ip_ratio=1.40 / aq=3:1.00
Encoded date : UTC 2021-06-07 16:17:16
Tagged date : UTC 2021-06-07 16:17:16
Codec configuration box : avcC

Audio
ID : 2
Format : AAC LC
Format/Info : Advanced Audio Codec Low Complexity
Codec ID : mp4a-40-2
Duration : 1 h 24 min
Duration_LastFrame : -11 ms
Bit rate mode : Constant
Bit rate : 224 kb/s
Channel(s) : 2 channels
Channel layout : L R
Sampling rate : 48.0 kHz
Frame rate : 46.875 FPS (1024 SPF)
Compression mode : Lossy
Stream size : 136 MiB (8%)
Language : Japanese
Default : Yes
Alternate group : 1
Encoded date : UTC 2021-06-07 16:17:16
Tagged date : UTC 2021-06-07 16:17:16





1 个附件 售价 大小 下载 时间

Rise.Up.2009.JAPANESE.1080p.WEBRip.x264-VXT.torrent 0 金币 16.84K 399 次 1月前

#1楼
发帖时间:2021-06-08 09:40:39   |   回复数:0
游客组