travismk
一代宗师

[2011] [日本] [剧情] [BD-1080P] 让老师流产委员会 Lets.Make.The.Teacher.Have.A.Miscarriage.Club.2011.JAPANESE.1080p.BluRa

-->

帖子完整标题:让老师流产委员会 Lets.Make.The.Teacher.Have.A.Miscarriage.Club.2011.JAPANESE.1080p.BluRay.x264.DD2.0-iKiW 6.00GB



◎译  名 让老师流产委员会/Let's-Make-the-Teacher-Have-a-Miscarriage Club/Sensei wo ry?zan saseru-kai
◎片  名 先生を流産させる会
◎年  代 2011
◎产  地 日本
◎类  别 剧情
◎语  言 日语
◎上映日期 2012-05-26(日本)
◎豆瓣评分 5.8/10 from 115 users
◎豆瓣链接 https://movie.douban.com/subject/5977317/
◎片  长 62分钟
◎导  演 内藤瑛亮 Eisuke Nait?
◎编  剧 内藤瑛亮 Eisuke Nait?

◎标  签 日本 | 日本电影 | 真实事件改编 | 电影 | 映画 | 日影 | 校园 | 2012

◎简  介

  一所远离城市喧嚣的女子中学,怀孕4个月的教师佐和子(宫田亚纪 饰)不得不板着面孔管教宠溺无度的孩子们,而女孩们的家长则时不时打来电话抱怨投诉,令正常的教学工作无法顺利开展。叛逆的美月(小林香织 饰)早就不服真央佐和子的管教,她和海穗、明菜、诗音等小跟班来到一座废弃的情人旅馆,在那里偷偷成立了“让老师流产委员会”。在此之后,可怕的女孩们通过药物、暴力手段整治老师。早有察觉的佐和子不得不提起十二分的精神,防备学生们的陷害。师生间早已没有信任和依赖,有的只有令人心寒的相杀相残……
  
  2009年爱知县某中学11名男生成立“让老师流产委员会”,试图杀害级任老师腹中的孩子,本片取材自该事件。

Video
ID : 1
Format : AVC
Format/Info : Advanced Video Codec
Format profile : [email protected]
Format settings : CABAC / 4 Ref Frames
Format settings, CABAC : Yes
Format settings, Reference frames : 4 frames
Codec ID : V_MPEG4/ISO/AVC
Duration : 1 h 2 min
Bit rate : 13.2 Mb/s
Width : 1 920 pixels
Height : 1 080 pixels
Display aspect ratio : 16:9
Frame rate mode : Constant
Frame rate : 29.970 (30000/1001/189150) FPS
Color space : YUV
Chroma subsampling : 4:2:0
Bit depth : 8 bits
Scan type : Progressive
Bits/(Pixel*Frame) : 0.212
Stream size : 5.71 GiB (95%)
Title : Jubowo @ WiKi
Writing library : x264 core 129 r2245+704+36 8e61944 tMod+MixAQ [[email protected]:2:0 X86_64]
Encoding settings : cabac=1 / ref=4 / deblock=1:-3:-3 / analyse=0x3:0x133 / me=umh / subme=11 / psy=1 / fade_compensate=0.00 / psy_rd=1.05:0.10 / mixed_ref=1 / me_range=64 / chroma_me=1 / trellis=2 / 8x8dct=1 / cqm=0 / deadzone=21,11 / fast_pskip=0 / chroma_qp_offset=-3 / threads=18 / lookahead_threads=3 / sliced_threads=0 / nr=0 / decimate=0 / interlaced=0 / bluray_compat=0 / constrained_intra=0 / fgo=0 / bframes=10 / b_pyramid=2 / b_adapt=2 / b_bias=0 / direct=3 / weightb=1 / open_gop=0 / weightp=2 / keyint=250 / keyint_min=25 / scenecut=40 / intra_refresh=0 / rc=2pass / mbtree=0 / bitrate=13190 / ratetol=1.0 / qcomp=0.70 / qpmin=0 / qpmax=69 / qpstep=4 / cplxblur=20.0 / qblur=0.5 / ip_ratio=1.40 / pb_ratio=1.30 / aq=1 / aq-strength=0.90 / aq-sensitivity=10.00 / aq-ifactor=1.00 / aq-pfactor=1.00 / aq-bfactor=1.00 / aq2=0
Language : Japanese
Default : Yes
Forced : No

Audio
ID : 2
Format : AC-3
Format/Info : Audio Coding 3
Commercial name : Dolby Digital
Codec ID : A_AC3
Duration : 1 h 2 min
Bit rate mode : Constant
Bit rate : 640 kb/s
Channel(s) : 2 channels
Channel layout : L R
Sampling rate : 48.0 kHz
Frame rate : 31.250 FPS (1536 SPF)
Compression mode : Lossy
Stream size : 284 MiB (5%)
Language : Japanese
Service kind : Complete Main
Default : Yes
Forced : No

Text
ID : 3
Format : UTF-8
Codec ID : S_TEXT/UTF8
Codec ID/Info : UTF-8 Plain Text
Duration : 58 min 24 s
Bit rate : 27 b/s
Count of elements : 472
Stream size : 11.9 KiB (0%)
Language : English
Default : Yes
Forced : No

Menu
00:00:00.000 : Chapter 01
00:02:42.896 : Chapter 02
00:07:35.288 : Chapter 03
00:13:38.317 : Chapter 04
00:19:37.510 : Chapter 05
00:25:55.521 : Chapter 06
00:32:07.993 : Chapter 07
00:37:31.916 : Chapter 08
00:42:32.817 : Chapter 09
00:47:38.989 : Chapter 10
00:51:52.276 : Chapter 11
00:57:52.336 : Chapter 12





1 个附件 售价 大小 下载 时间

Lets.Make.The.Teacher.Have.A.Miscarriage.Club.2011.JAPANESE.1080p.BluRay.x264.DD2.0-iKiW.torrent 0 金币 30.71K 1708 次 1月前

#1楼
发帖时间:2021-06-08 11:07:38   |   回复数:3
qq3131666
武林高手
这名字有点奇怪。。
1月前 #2楼
squirrel758
小有名气
真实事件改编?鬼子真奇葩!
1月前 #3楼
ken.sting
一派掌门
感谢楼主分享精彩资源!
1月前 #4楼
游客组