q3r3
武林盟主

[更 早] [其他] [剧情] [BD-4K] 艾曼纽/艾曼妞 Emmanuelle.1974.FRENCH.2160p.UHD.BluRay.x265.10bit.HDR.FLAC.2.0-SURCODE

-->

帖子完整标题:艾曼纽/艾曼妞 Emmanuelle.1974.FRENCH.2160p.UHD.BluRay.x265.10bit.HDR.FLAC.2.0-SURCODE 34.16GB



◎译  名 艾曼纽/艾曼妞
◎片  名 Emmanuelle
◎年  代 1974
◎产  地 法国
◎类  别 剧情 / 情色
◎语  言 法语
◎上映日期 1974-06-26(法国)
◎豆瓣评分 6.6/10 from 4908 users
◎豆瓣链接 https://movie.douban.com/subject/1296869/
◎片  长 105分钟
◎导  演 贾斯特·杰克金 Just Jaeckin
◎编  剧 让-路易·里夏尔 Jean-Louis Richard
◎主  演 阿兰·居尼 Alain Cuny
      西尔维娅·克里斯蒂 Sylvia Kristel
      玛莉卡·格林 Marika Green
      丹尼尔·萨基 Daniel Sarky
      让娜·科勒坦 Jeanne Colletin
      克里斯蒂娜·布瓦松 Christine Boisson

◎标  签 情色 | 法国 | 艾曼妞 | 法国电影 | 文艺 | 艾曼纽 | 1974 | 经典

◎简  介

  主人翁艾曼妞原是忠于丈夫的纯情妻子,跟外交官丈夫前往泰国,遇上一群法国老乡。鸳鸯恋她赫然发现那些贵妇人在异国环境下因感生活沉闷而到处留情,她在别人怂恿下也迈出了偷腥的第一步。不料在她丈夫知悉后,不但未予责怪,竟然鼓励她深入探索自己的内心情欲需求,于是她更加肆无忌惮地在曼 谷的大街小巷展开“性之旅”。后来艾曼妞认识了一名当地的性爱大师,在他的引导下终于达到情欲解放的最高境界。

Video
ID : 1
Format : HEVC
Format/Info : High Efficiency Video Coding
Format profile : Main [email protected]@High
HDR format : SMPTE ST 2086, HDR10 compatible
Codec ID : V_MPEGH/ISO/HEVC
Duration : 1 h 33 min
Bit rate : 50.5 Mb/s
Width : 3 604 pixels
Height : 2 160 pixels
Display aspect ratio : 5:3
Frame rate mode : Constant
Frame rate : 23.976 (24000/1001/189150) FPS
Color space : YUV
Chroma subsampling : 4:2:0 (Type 2)
Bit depth : 10 bits
Bits/(Pixel*Frame) : 0.271
Stream size : 33.1 GiB (98%)
Writing library : x265 3.5bf91444e0:[Windows][MSVC 1900][64 bit] 10bit
Encoding settings : cpuid=1111039 / frame-threads=6 / numa-pools=32 / wpp / no-pmode / no-pme / no-psnr / no-ssim / log-level=2 / input-csp=1 / input-res=3604x2160 / interlace=0 / total-frames=134761 / level-idc=51 / high-tier=1 / uhd-bd=0 / ref=4 / no-allow-non-conformance / repeat-headers / annexb / aud / no-eob / no-eos / hrd / info / hash=0 / no-temporal-layers / no-open-gop / min-keyint=23 / keyint=250 / gop-lookahead=0 / bframes=4 / b-adapt=2 / b-pyramid / bframe-bias=0 / rc-lookahead=25 / lookahead-slices=4 / scenecut=40 / hist-scenecut=0 / radl=0 / no-splice / no-intra-refresh / ctu=64 / min-cu-size=8 / rect / no-amp / max-tu-size=32 / tu-inter-depth=1 / tu-intra-depth=1 / limit-tu=0 / rdoq-level=2 / dynamic-rd=0.00 / no-ssim-rd / signhide / no-tskip / nr-intra=0 / nr-inter=0 / no-constrained-intra / no-strong-intra-smoothing / max-merge=3 / limit-refs=3 / limit-modes / me=3 / subme=3 / merange=57 / temporal-mvp / no-frame-dup / no-hme / weightp / no-weightb / no-analyze-src-pics / deblock=-3:-3 / no-sao / no-sao-non-deblock / rd=4 / selective-sao=0 / no-early-skip / rskip / no-fast-intra / no-tskip-fast / no-cu-lossless / no-b-intra / no-splitrd-skip / rdpenalty=0 / psy-rd=2.00 / psy-rdoq=1.00 / no-rd-refine / no-lossless / cbqpoffs=0 / crqpoffs=0 / rc=crf / crf=14.5 / qcomp=0.60 / qpstep=4 / stats-write=0 / stats-read=0 / vbv-maxrate=160000 / vbv-bufsize=160000 / vbv-init=0.9 / min-vbv-fullness=50.0 / max-vbv-fullness=80.0 / crf-max=0.0 / crf-min=0.0 / ipratio=1.40 / pbratio=1.30 / aq-mode=2 / aq-strength=1.00 / cutree / zone-count=0 / no-strict-cbr / qg-size=32 / no-rc-grain / qpmax=69 / qpmin=0 / no-const-vbv / sar=1 / overscan=0 / videoformat=5 / range=0 / colorprim=9 / transfer=16 / colormatrix=9 / chromaloc=1 / chromaloc-top=2 / chromaloc-bottom=2 / display-window=0 / master-display=G(8500,39850)B(6550,2300)R(35400,14600)WP(15635,16450)L(10000000,01) / cll=1000,400 / min-luma=0 / max-luma=1023 / log2-max-poc-lsb=8 / vui-timing-info / vui-hrd-info / slices=1 / no-opt-qp-pps / no-opt-ref-list-length-pps / no-multi-pass-opt-rps / scenecut-bias=0.05 / hist-threshold=0.03 / no-opt-cu-delta-qp / no-aq-motion / hdr10 / hdr10-opt / no-dhdr10-opt / no-idr-recovery-sei / analysis-reuse-level=0 / analysis-save-reuse-level=0 / analysis-load-reuse-level=0 / scale-factor=0 / refine-intra=0 / refine-inter=0 / refine-mv=1 / refine-ctu-distortion=0 / no-limit-sao / ctu-info=0 / no-lowpass-dct / refine-analysis-type=0 / copy-pic=1 / max-ausize-factor=1.0 / no-dynamic-refine / no-single-sei / no-hevc-aq / no-svt / no-field / qp-adaptation-range=1.00 / scenecut-aware-qp=0conformance-window-offsets / right=0 / bottom=0 / decoder-max-rate=0 / no-vbv-live-multi-pass
Default : Yes
Forced : No
Color range : Limited
Color primaries : BT.2020
Transfer characteristics : PQ
Matrix coefficients : BT.2020 non-constant
Mastering display color primaries : BT.2020
Mastering display luminance : min: 0.0001 cd/m2, max: 1000 cd/m2
Maximum Content Light Level : 1000 cd/m2
Maximum Frame-Average Light Level : 400 cd/m2

Audio #1
ID : 2
Format : FLAC
Format/Info : Free Lossless Audio Codec
Codec ID : A_FLAC
Duration : 1 h 33 min
Bit rate mode : Variable
Bit rate : 437 kb/s
Channel(s) : 2 channels
Channel layout : L R
Sampling rate : 48.0 kHz
Frame rate : 11.719 FPS (4096 SPF)
Bit depth : 16 bits
Compression mode : Lossless
Stream size : 293 MiB (1%)
Title : Original Stereo
Writing library : libFLAC 1.3.2 (UTC 2017-01-01)
Language : French
Default : Yes
Forced : No

Audio #2
ID : 3
Format : FLAC
Format/Info : Free Lossless Audio Codec
Codec ID : A_FLAC
Duration : 1 h 33 min
Bit rate mode : Variable
Bit rate : 418 kb/s
Channel(s) : 2 channels
Channel layout : L R
Sampling rate : 48.0 kHz
Frame rate : 11.719 FPS (4096 SPF)
Bit depth : 16 bits
Compression mode : Lossless
Stream size : 280 MiB (1%)
Title : Dubbed Stereo
Writing library : libFLAC 1.3.2 (UTC 2017-01-01)
Language : English
Default : No
Forced : No

Text #1
ID : 4
Format : UTF-8
Codec ID : S_TEXT/UTF8
Codec ID/Info : UTF-8 Plain Text
Duration : 1 h 28 min
Bit rate : 38 b/s
Count of elements : 656
Stream size : 24.7 KiB (0%)
Language : English
Default : Yes
Forced : No

Text #2
ID : 5
Format : PGS
Muxing mode : zlib
Codec ID : S_HDMV/PGS
Codec ID/Info : Picture based subtitle format used on BDs/HD-DVDs
Duration : 1 h 28 min
Bit rate : 24.5 kb/s
Count of elements : 1322
Stream size : 15.4 MiB (0%)
Language : German
Default : No
Forced : No

Text #3
ID : 6
Format : PGS
Muxing mode : zlib
Codec ID : S_HDMV/PGS
Codec ID/Info : Picture based subtitle format used on BDs/HD-DVDs
Duration : 1 h 28 min
Bit rate : 20.8 kb/s
Count of elements : 1322
Stream size : 13.1 MiB (0%)
Language : English
Default : No
Forced : No

Menu
00:00:00.000 : en:Chapter 01
00:06:02.987 : en:Chapter 02
00:14:09.765 : en:Chapter 03
00:18:43.831 : en:Chapter 04
00:24:57.037 : en:Chapter 05
00:30:27.033 : en:Chapter 06
00:36:43.159 : en:Chapter 07
00:42:53.571 : en:Chapter 08
00:49:48.610 : en:Chapter 09
00:54:30.433 : en:Chapter 10
01:01:24.180 : en:Chapter 11
01:07:10.276 : en:Chapter 12
01:14:02.646 : en:Chapter 13
01:21:47.861 : en:Chapter 14
01:27:55.937 : en:Chapter 15
01:32:46.143 : en:Chapter 16





1 个附件 售价 大小 下载 时间

Emmanuelle.1974.FRENCH.2160p.UHD.BluRay.x265.10bit.HDR.FLAC.2.0-SURCODE.torrent 0 金币 86.18K 6818 次 14天前

#1楼
发帖时间:2021-06-11 12:35:15   |   回复数:0
游客组