squallzhao
武林盟主

[2014] [欧美] [其他] [WEB-1080P] 治疗效果 The.Healing.Effect.2014.1080p.WEBRip.x264-RARBG 989.03MB

-->

帖子完整标题:治疗效果 The.Healing.Effect.2014.1080p.WEBRip.x264-RARBG 989.03MB



◎译  名 治疗效果
◎片  名 The Healing Effect
◎年  代 2014
◎产  地 美国
◎类  别 纪录片
◎语  言 英语
◎上映日期 2014-04-28
◎豆瓣评分 /10 from 0 users
◎豆瓣链接 https://movie.douban.com/subject/26759109/
◎片  长 50分钟
◎主  演 Brad Case
      夏绿蒂·葛森 Charlotte Gerson

◎简  介

  The Healing Effect movie is a new documentary about the healing power of food. The film features cutting edge interviews with best selling authors and experts such as John Robbins, Joel Fuhrman, David Wolfe, Charlotte Gerson, Daphne Miller, John McDougall, Philip McCluskey, John Bagnulo and many more. The movie explores the power of prevention; why bad genes are not your destiny; food and lifestyle secrets from the healthiest, longest lived people on the planet; and simple steps to get started right now in changing your life, one bite at a time.

Video
ID : 1
Format : AVC
Format/Info : Advanced Video Codec
Format profile : [email protected]
Format settings : CABAC / 4 Ref Frames
Format settings, CABAC : Yes
Format settings, Reference frames : 4 frames
Codec ID : avc1
Codec ID/Info : Advanced Video Coding
Duration : 50 min 40 s
Bit rate : 2 500 kb/s
Width : 1 920 pixels
Height : 1 080 pixels
Display aspect ratio : 16:9
Frame rate mode : Constant
Frame rate : 23.976 (23976/1000/189150) FPS
Color space : YUV
Chroma subsampling : 4:2:0
Bit depth : 8 bits
Scan type : Progressive
Bits/(Pixel*Frame) : 0.050
Stream size : 906 MiB (92%)
Writing library : x264 core 152 r2851M ba24899
Encoding settings : cabac=1 / ref=4 / deblock=1:-1:-1 / analyse=0x3:0x113 / me=umh / subme=9 / psy=1 / psy_rd=1.00:0.15 / mixed_ref=1 / me_range=24 / chroma_me=1 / trellis=2 / 8x8dct=1 / cqm=0 / deadzone=21,11 / fast_pskip=1 / chroma_qp_offset=-3 / threads=16 / lookahead_threads=4 / sliced_threads=0 / nr=0 / decimate=1 / interlaced=0 / bluray_compat=0 / constrained_intra=0 / bframes=3 / b_pyramid=2 / b_adapt=2 / b_bias=0 / direct=3 / weightb=1 / open_gop=0 / weightp=2 / keyint=250 / keyint_min=25 / scenecut=40 / intra_refresh=0 / rc_lookahead=50 / rc=2pass / mbtree=1 / bitrate=2500 / ratetol=1.0 / qcomp=0.60 / qpmin=0 / qpmax=69 / qpstep=4 / cplxblur=20.0 / qblur=0.5 / vbv_maxrate=31250 / vbv_bufsize=31250 / nal_hrd=none / filler=0 / ip_ratio=1.40 / aq=3:1.00
Encoded date : UTC 2021-06-10 12:47:09
Tagged date : UTC 2021-06-10 12:47:09
Codec configuration box : avcC

Audio
ID : 2
Format : AAC LC
Format/Info : Advanced Audio Codec Low Complexity
Codec ID : mp4a-40-2
Duration : 50 min 40 s
Bit rate mode : Constant
Bit rate : 224 kb/s
Channel(s) : 2 channels
Channel layout : L R
Sampling rate : 48.0 kHz
Frame rate : 46.875 FPS (1024 SPF)
Compression mode : Lossy
Stream size : 81.2 MiB (8%)
Language : English
Default : Yes
Alternate group : 1
Encoded date : UTC 2021-06-10 12:47:09
Tagged date : UTC 2021-06-10 12:47:09





1 个附件 售价 大小 下载 时间

The.Healing.Effect.2014.1080p.WEBRip.x264-RARBG.torrent 0 金币 20.03K 224 次 13天前

#1楼
发帖时间:2021-06-11 14:20:59   |   回复数:0
游客组