q3r3
一代宗师

[2017] [日本] [剧情] [BD-1080P] 她不知道名字的那些鸟儿 Birds.Without.Names.2017.1080p.BluRay.x264-YAMG 11.95GB

-->

帖子完整标题:她不知道名字的那些鸟儿 Birds.Without.Names.2017.1080p.BluRay.x264-YAMG 11.95GB



◎译  名 她不知道名字的那些鸟儿/Birds Without Names/她不知道那些鸟的名字(台)/未闻鸟名(豆友译名)/鸟兽行(港)
◎片  名 彼女がその名を知らない鳥たち
◎年  代 2017
◎产  地 日本
◎类  别 剧情 / 悬疑
◎语  言 日语
◎上映日期 2017-09-07(多伦多电影节) / 2017-10-28(日本)
◎豆瓣评分 6.9/10 from 20176 users
◎豆瓣链接 https://movie.douban.com/subject/26928304/
◎片  长 123分钟
◎导  演 白石和弥 Kazuya Shiraishi
◎编  剧 浅野妙子 Taeko Asano / 沼田真帆香留 Mahokaru Numata
◎主  演 苍井优 Yu Aoi
      阿部隆史 Sadao Abe
      松坂桃李 T?ri Matsuzaka
      村川绘梨 Eri Murakawa
      赤堀雅秋 Masaaki Akahori
      赤泽瑟丽 Seri Akaba
      中岛书 Sh? Nakajima
      竹野内丰 Yutaka Takenouchi

◎标  签 日本 | 爱情 | 人性 | 悬疑 | 剧情 | 犯罪 | 2017 | 情色

◎简  介

  北原十和子(苍井优 饰)同名为阵治(阿部隆史 饰)的男子过着同居的生活。虽然居住在同一屋檐下,但十和子和阵治之间却并非情侣关系。十和子厌恶阵治的粗俗和懦弱,而即便被十和子辱骂嫌弃,阵治却依然深深的为她着迷。十和子有过一段不堪回首的恋情,前男友黑崎俊一(竹野内丰 饰)是一个彻头彻尾的渣男,不仅利用十和子的身体,还在分手之时将十和子打成重伤。
  
  一次偶然中,十和子结识了名为水岛真(松坂桃李 饰)的男子,一来二去之间,两人之间产生了不伦的感情。然而,水岛真也只不过是贪恋十和子的肉体罢了。警察找到了十和子,向她询问失踪的黑崎的下落。

◎获奖情况

  第41届日本电影学院奖 ?(2018)
  最佳女主角 苍井优
  
  第12届亚洲电影大奖 ?(2018)
  最佳女主角(提名) 苍井优
  
  第42届报知映画赏 ?(2017)
  最佳女主角 苍井优

Video
ID : 1
Format : AVC
Format/Info : Advanced Video Codec
Format profile : High[email protected]
Format settings : CABAC / 5 Ref Frames
Format settings, CABAC : Yes
Format settings, Reference frames : 5 frames
Codec ID : V_MPEG4/ISO/AVC
Duration : 2 h 3 min
Bit rate : 10.3 Mb/s
Width : 1 920 pixels
Height : 804 pixels
Display aspect ratio : 2.40:1
Frame rate mode : Constant
Frame rate : 23.976 (24000/1001/189150) FPS
Color space : YUV
Chroma subsampling : 4:2:0
Bit depth : 8 bits
Scan type : Progressive
Bits/(Pixel*Frame) : 0.278
Stream size : 8.87 GiB (74%)
Writing library : x264 core 161 r3048 b86ae3c
Encoding settings : cabac=1 / ref=5 / deblock=1:-3:-3 / analyse=0x3:0x133 / me=umh / subme=10 / psy=1 / psy_rd=1.00:0.00 / mixed_ref=1 / me_range=32 / chroma_me=1 / trellis=2 / 8x8dct=1 / cqm=0 / deadzone=21,11 / fast_pskip=0 / chroma_qp_offset=-2 / threads=24 / lookahead_threads=4 / sliced_threads=0 / nr=0 / decimate=0 / interlaced=0 / bluray_compat=0 / constrained_intra=0 / bframes=8 / b_pyramid=2 / b_adapt=2 / b_bias=0 / direct=3 / weightb=1 / open_gop=0 / weightp=2 / keyint=250 / keyint_min=23 / scenecut=40 / intra_refresh=0 / rc=crf / mbtree=0 / crf=16.0 / qcomp=0.60 / qpmin=0 / qpmax=69 / qpstep=4 / ip_ratio=1.40 / pb_ratio=1.30 / aq=3:0.60
Language : English
Default : Yes
Forced : No
Color range : Limited
Matrix coefficients : BT.709

Audio
ID : 2
Format : DTS XLL
Format/Info : Digital Theater Systems
Commercial name : DTS-HD Master Audio
Codec ID : A_DTS
Duration : 2 h 3 min
Bit rate mode : Variable
Bit rate : 3 538 kb/s
Channel(s) : 6 channels
Channel layout : C L R Ls Rs LFE
Sampling rate : 48.0 kHz
Frame rate : 93.750 FPS (512 SPF)
Bit depth : 24 bits
Compression mode : Lossless
Stream size : 3.05 GiB (26%)
Title : Japanese
Language : Japanese
Default : Yes
Forced : No

Text #1
ID : 3
Format : UTF-8
Codec ID : S_TEXT/UTF8
Codec ID/Info : UTF-8 Plain Text
Duration : 2 h 3 min
Bit rate : 29 b/s
Count of elements : 1162
Stream size : 26.9 KiB (0%)
Title : English Forced
Language : English
Default : Yes
Forced : Yes

Text #2
ID : 4
Format : PGS
Muxing mode : zlib
Codec ID : S_HDMV/PGS
Codec ID/Info : Picture based subtitle format used on BDs/HD-DVDs
Duration : 2 h 3 min
Bit rate : 35.4 kb/s
Count of elements : 2324
Stream size : 31.2 MiB (0%)
Title : English Forced PGS
Language : English
Default : No
Forced : No

Menu
00:00:00.000 : en:Chapter 01
00:15:03.569 : en:Chapter 02
00:29:10.540 : en:Chapter 03
00:44:28.666 : en:Chapter 04
01:01:49.873 : en:Chapter 05
01:14:06.484 : en:Chapter 06
01:29:25.569 : en:Chapter 07
01:41:50.021 : en:Chapter 08
01:52:45.926 : en:Chapter 09





1 个附件 售价 大小 下载 时间

Birds.Without.Names.2017.1080p.BluRay.x264-YAMG.torrent 0 金币 60.57K 1694 次 1月前

#1楼
发帖时间:2021-06-12 12:26:21   |   回复数:0
游客组