squallzhao
武林盟主

[更 早] [日本] [剧情] [BD-1080P] 恋爱猎人 Love.Hunter.1972.1080p.BluRay.x264-YAMG 7.57GB

-->

帖子完整标题:恋爱猎人 Love.Hunter.1972.1080p.BluRay.x264-YAMG 7.57GB



◎译  名 恋爱猎人/Koi No Karyudo: Love Hunter/Love Hunter
◎片  名 恋の狩人 ラブ?ハンター
◎年  代 1972
◎产  地 日本
◎类  别 剧情
◎语  言 日语
◎上映日期 1972-01-18
◎豆瓣评分 /10 from 0 users
◎豆瓣链接 https://movie.douban.com/subject/3088481/
◎片  长 72分钟
◎主  演 原英美 Hidemi Hara

◎标  签 日本 | 山口清一郎 | 粉红日影 | 日韩系统之日本情色 | 情色 | 日本电影 | 1970s | 田中真理

◎简  介

  選りすぐりの名作をデジタル?ニューマスター仕様でDVD化した日活名作ロマンシリーズ。国家権力が嫉妬した、伝説の傑作ポルノ!17歳の時に、偶然母と祖父のSEXを覗き見てしまった今日子。それ以来、実業家との結婚を目前に控えた現在まで、異常な性行動は止まることを知らず…。“日活名作ロマンシリーズ”。山口清一郎監督、原英美、大泉隆二、南寿美子ほか出演。R-18作品。

Video
ID : 1
Format : AVC
Format/Info : Advanced Video Codec
Format profile : [email protected]
Format settings : CABAC / 5 Ref Frames
Format settings, CABAC : Yes
Format settings, Reference frames : 5 frames
Codec ID : V_MPEG4/ISO/AVC
Duration : 1 h 12 min
Bit rate : 14.6 Mb/s
Width : 1 920 pixels
Height : 780 pixels
Display aspect ratio : 2.462
Frame rate mode : Constant
Frame rate : 23.976 (24000/1001/189150) FPS
Color space : YUV
Chroma subsampling : 4:2:0
Bit depth : 8 bits
Scan type : Progressive
Bits/(Pixel*Frame) : 0.408
Stream size : 7.42 GiB (98%)
Writing library : x264 core 161 r3048 b86ae3c
Encoding settings : cabac=1 / ref=5 / deblock=1:-3:-3 / analyse=0x3:0x133 / me=umh / subme=10 / psy=1 / psy_rd=1.00:0.00 / mixed_ref=1 / me_range=32 / chroma_me=1 / trellis=2 / 8x8dct=1 / cqm=0 / deadzone=21,11 / fast_pskip=0 / chroma_qp_offset=-2 / threads=24 / lookahead_threads=4 / sliced_threads=0 / nr=0 / decimate=0 / interlaced=0 / bluray_compat=0 / constrained_intra=0 / bframes=8 / b_pyramid=2 / b_adapt=2 / b_bias=0 / direct=3 / weightb=1 / open_gop=0 / weightp=2 / keyint=250 / keyint_min=23 / scenecut=40 / intra_refresh=0 / rc=crf / mbtree=0 / crf=21.0 / qcomp=0.60 / qpmin=0 / qpmax=69 / qpstep=4 / ip_ratio=1.40 / pb_ratio=1.30 / aq=3:0.60
Language : English
Default : Yes
Forced : No
Color range : Limited
Matrix coefficients : BT.709

Audio
ID : 2
Format : FLAC
Format/Info : Free Lossless Audio Codec
Codec ID : A_FLAC
Duration : 1 h 12 min
Bit rate mode : Variable
Bit rate : 297 kb/s
Channel(s) : 2 channels
Channel layout : L R
Sampling rate : 48.0 kHz
Frame rate : 11.719 FPS (4096 SPF)
Bit depth : 16 bits
Compression mode : Lossless
Stream size : 154 MiB (2%)
Title : Japanese
Writing library : libFLAC 1.3.3 (UTC 2019-08-04)
Language : Japanese
Default : Yes
Forced : No

Text #1
ID : 3
Format : UTF-8
Codec ID : S_TEXT/UTF8
Codec ID/Info : UTF-8 Plain Text
Duration : 1 h 12 min
Bit rate : 18 b/s
Count of elements : 491
Stream size : 9.74 KiB (0%)
Title : English Forced
Language : English
Default : Yes
Forced : Yes

Text #2
ID : 4
Format : PGS
Muxing mode : zlib
Codec ID : S_HDMV/PGS
Codec ID/Info : Picture based subtitle format used on BDs/HD-DVDs
Duration : 1 h 12 min
Bit rate : 12.2 kb/s
Count of elements : 982
Stream size : 6.33 MiB (0%)
Title : English Forced PGS
Language : English
Default : No
Forced : No

Menu
00:00:00.000 : en:Chapter 01
00:06:31.141 : en:Chapter 02
00:14:07.180 : en:Chapter 03
00:19:49.146 : en:Chapter 04
00:29:59.756 : en:Chapter 05
00:36:47.205 : en:Chapter 06
00:41:37.578 : en:Chapter 07
00:51:47.104 : en:Chapter 08
00:56:25.048 : en:Chapter 09
01:07:55.530 : en:Chapter 10





1 个附件 售价 大小 下载 时间

Love.Hunter.1972.1080p.BluRay.x264-YAMG.torrent 0 金币 38.67K 2646 次 1月前

#1楼
发帖时间:2021-06-12 14:08:02   |   回复数:0
游客组