fg603603
武林盟主

[更 早] [日本] [剧情] [WEB-1080P] 日本诞生 The.Three.Treasures.1959.JAPANESE.1080p.AMZN.WEBRip.DDP2.0.x264-SbR 18.25GB

-->

帖子完整标题:日本诞生 The.Three.Treasures.1959.JAPANESE.1080p.AMZN.WEBRip.DDP2.0.x264-SbR 18.25GB



◎译  名 日本诞生
◎片  名 日本誕生
◎年  代 1959
◎产  地 日本
◎类  别 剧情 / 喜剧 / 奇幻 / 冒险
◎语  言 日语
◎上映日期 1959-11-01(日本)
◎豆瓣评分 5.7/10 from 90 users
◎豆瓣链接 https://movie.douban.com/subject/1300910/
◎片  长 182分钟
◎导  演 稻垣浩 Hiroshi Inagaki
◎编  剧 菊岛隆三 Ry?z? Kikushima / 八住利雄 Toshio Yasumi
◎主  演 三船敏郎 Toshir? Mifune
      司叶子 Y?ko Tsukasa
      原节子 Setsuko Hara
      上原美佐 Misa Uehara
      手塚胜巳 Katsumi Tezuka
      泽村伊纪雄 Ikio Sawamura
      小杉义男 Yoshio Kosugi
      宝田明 Akira Takarada
      小林桂树 Keiju Kobayashi
      野村浩三 K?z? Nomura
      桐野洋雄 Nadao Kirino
      鹤田浩二 Koji Tsuruta
      藤木悠 Y? Fujiki
      上田吉二郎 Kichijir? Ueda
      大村千吉 Senkichi ?mura
      中村雁治郎 Ganjiro Nakamura
      大友伸 Shin ?tomo
      熊谷卓三 Takuz? Kumagai
      久世龙 Ry? Kuze
      广濑正一 Sh?ichi Hirose
      东野英治郎 Eijir? T?no
      哈罗德·康韦 Harold Conway
      久保明 Akira Kubo
      香川京子 Ky?ko Kagawa
      中北千枝子 Chieko Nakakita
      村上冬树 Fuyuki Murakami
      杉村春子 Haruko Sugimura
      天本英世 Eisei Amamoto
      平田昭彦 Akihiko Hirata
      水野久美 Kumi Mizuno
      三木纪平 Norihei Miki
      伊豆肇 Hajime Izu
      加东大介 Daisuke Kat?
      堤康久 Yasuhisa Tsutsumi
      田崎润 Jun Tazaki
      田中绢代 Kinuyo Tanaka
      柳家金语楼 Kingoro Yanagiya
      有岛一郎 Ichir? Arishima
      左卜全 Bokuzen Hidari
      志村乔 Takashi Shimura
      榎本健一 Kenichi Enomoto
      谷晃 Akira Tani
      乙羽信子 Nobuko Otowa
      松尾文人 Fumito Matsuo
      伊藤久哉 Hisaya Ito
      田岛义文 Yoshifumi Tajima
      佐田丰 Yutaka Sada

◎标  签 日本 | 稻垣浩 | 日本电影 | 三船敏郎 | 原节子 | 历史 | 1959 | 武士

◎简  介

  海岛国王之儿子小椎命,英勇绝伦,熟谱兵法。继母为人阴险,一心想自己的儿子继成皇位,遂阴谋除去皇子,向天皇献议,命皇子率兵征服饶勇善战之熊曾族人,并深信皇子必战死沙场。殊不知皇子化装为妇人,单人匹马潜入敌营,一举杀死熊曾族兄弟二人……

Video
ID : 1
Format : AVC
Format/Info : Advanced Video Codec
Format profile : [email protected]
Format settings : CABAC / 4 Ref Frames
Format settings, CABAC : Yes
Format settings, Reference frames : 4 frames
Codec ID : V_MPEG4/ISO/AVC
Duration : 3 h 1 min
Bit rate mode : Variable
Bit rate : 14.2 Mb/s
Maximum bit rate : 15.0 Mb/s
Width : 1 920 pixels
Height : 1 080 pixels
Display aspect ratio : 16:9
Frame rate mode : Constant
Frame rate : 23.976 (24000/1001/189150) FPS
Color space : YUV
Chroma subsampling : 4:2:0
Bit depth : 8 bits
Scan type : Progressive
Bits/(Pixel*Frame) : 0.286
Stream size : 18.0 GiB (98%)
Writing library : x264 core 148 r2623 d5b2374
Encoding settings : cabac=1 / ref=4 / deblock=1:-1:-1 / analyse=0x3:0x133 / me=umh / subme=9 / psy=1 / psy_rd=1.00:0.15 / mixed_ref=1 / me_range=24 / chroma_me=1 / trellis=2 / 8x8dct=1 / cqm=0 / deadzone=21,11 / fast_pskip=1 / chroma_qp_offset=-3 / threads=34 / lookahead_threads=5 / sliced_threads=0 / nr=150 / decimate=1 / interlaced=0 / bluray_compat=0 / constrained_intra=0 / bframes=8 / b_pyramid=2 / b_adapt=2 / b_bias=0 / direct=3 / weightb=1 / open_gop=0 / weightp=2 / keyint=120 / keyint_min=61 / scenecut=0 / intra_refresh=0 / rc_lookahead=120 / rc=crf / mbtree=1 / crf=18.0 / qcomp=0.60 / qpmin=0 / qpmax=69 / qpstep=4 / vbv_maxrate=15000 / vbv_bufsize=31250 / crf_max=0.0 / nal_hrd=vbr / filler=0 / ip_ratio=1.40 / aq=3:1.00
Language : Japanese
Default : Yes
Forced : No
Color range : Limited
Color primaries : BT.709
Transfer characteristics : BT.709
Matrix coefficients : BT.709

Audio
ID : 2
Format : E-AC-3
Format/Info : Enhanced AC-3
Commercial name : Dolby Digital Plus
Codec ID : A_EAC3
Duration : 3 h 1 min
Bit rate mode : Constant
Bit rate : 224 kb/s
Channel(s) : 2 channels
Channel layout : L R
Sampling rate : 48.0 kHz
Frame rate : 31.250 FPS (1536 SPF)
Compression mode : Lossy
Stream size : 290 MiB (2%)
Language : Japanese
Service kind : Complete Main
Default : Yes
Forced : No

Text
ID : 3
Format : UTF-8
Codec ID : S_TEXT/UTF8
Codec ID/Info : UTF-8 Plain Text
Duration : 3 h 1 min
Bit rate : 27 b/s
Count of elements : 1337
Stream size : 36.5 KiB (0%)
Language : English
Default : Yes
Forced : No

Menu
00:00:00.000 : en:Chapter 1
00:02:48.710 : en:Chapter 2
00:12:25.870 : en:Chapter 3
00:18:35.281 : en:Chapter 4
00:27:45.372 : en:Chapter 5
00:47:52.369 : en:Chapter 6
00:57:01.376 : en:Chapter 7
01:00:06.686 : en:Chapter 8
01:09:00.553 : en:Chapter 9
01:16:47.561 : en:Chapter 10
01:25:11.231 : en:Chapter 11
01:31:37.826 : en:Chapter 12
01:42:51.750 : en:Chapter 13
01:55:58.535 : en:Chapter 14
02:00:16.167 : en:Chapter 15
02:05:02.912 : en:Chapter 16
02:07:17.213 : en:Chapter 17
02:19:24.856 : en:Chapter 18
02:31:03.930 : en:Chapter 19
02:35:44.502 : en:Chapter 20
02:39:31.437 : en:Chapter 21
02:46:06.790 : en:Chapter 22
02:51:04.558 : en:Chapter 23
02:58:07.552 : en:Chapter 24





1 个附件 售价 大小 下载 时间

The.Three.Treasures.1959.JAPANESE.1080p.AMZN.WEBRip.DDP2.0.x264-SbR.torrent 0 金币 91.92K 1253 次 1月前

#1楼
发帖时间:2021-06-13 11:27:39   |   回复数:0
游客组