fg603603
武林盟主

[更 早] [日本] [剧情] [WEB-1080P] 地球防卫军 The.Mytserians.1957.JAPANESE.1080p.AMZN.WEBRip.DD5.1.x264-NOGRP 8.85GB

-->

帖子完整标题:地球防卫军 The.Mytserians.1957.JAPANESE.1080p.AMZN.WEBRip.DD5.1.x264-NOGRP 8.85GB



◎译  名 地球防卫军/Defence Force of the Earth/Earth Defense Force/The Mysterians
◎片  名 地球防衛軍
◎年  代 1957
◎产  地 日本
◎类  别 剧情 / 动作 / 科幻 / 惊悚 / 战争
◎语  言 日语,英语
◎上映日期 1957-12-28
◎豆瓣评分 6.3/10 from 96 users
◎豆瓣链接 https://movie.douban.com/subject/1508080/
◎片  长 89 分钟
◎导  演 本多猪四郎 Ishir? Honda
◎编  剧 木村武 Takeshi Kimura / 香山滋 Shigeru Kayama / 丘见丈二郎 Jojiro Okami
◎主  演 佐田丰 Yutaka Sada
      手塚胜巳 Katsumi Tezuka
      哈罗德·康韦 Harold Conway
      广濑正一 Sh?ichi Hirose
      河内桃子 Momoko K?chi
      熊谷卓三 Takuz? Kumagai
      拜伦·莫罗 Byron Morrow
      大友伸 Shin ?tomo
      中村哲 Tetsu Nakamura
      大川平八郎 Heihachir? ?kawa
      小杉义男 Yoshio Kosugi
      加藤春哉 Haruya Kato
      中岛春雄 Haruo Nakajima
      平田昭彦 Akihiko Hirata
      藤田进 Susumu Fujita
      村上冬树 Fuyuki Murakami
      伊藤久哉 Hisaya Ito
      志村乔 Takashi Shimura
      白川由美 Yumi Shirakawa
      土屋嘉男 Yoshio Tsuchiya
      佐原健二 Kenji Sahara
      大村千吉 Senkichi ?mura

◎标  签 特摄 | 本多猪四郎 | 日本 | 科幻 | 日本电影 | 1957 | 动作 | 1950s

◎简  介

  富士山下的小村庄正在进行热闹的祭典,突如其来的山火却让人们陷入恐慌之中,而天文学家白石良一(平田昭彦 饰)则在混乱中失踪。不久,当地发生滑坡、天坑等离奇事件,更有一个巨大、恐怖的机器人出现,对周遭城镇进行大肆破坏。白石的朋友渥美让治(佐原健二 饰)和安达谦治郎博士(志村喬 饰)随同军队前往当地调查,意外遭遇外星人的球形基地,并受到对方的邀请。外星人声称很久以前他们的星球因核战而毁灭,幸存者在宇宙间流浪寻找合适的栖息地。他们希望地球人开辟半径为3公里的土地给外星人居住,并准许他们和地球的女性通婚。人类对此表示拒绝,并组成地球防卫军和星外来客展开对抗……
  
  本片为东宝首部采用宽银幕的特摄作品。

Video
ID : 1
Format : AVC
Format/Info : Advanced Video Codec
Format profile : [email protected]
Format settings : CABAC / 4 Ref Frames
Format settings, CABAC : Yes
Format settings, Reference frames : 4 frames
Codec ID : V_MPEG4/ISO/AVC
Duration : 1 h 28 min
Bit rate mode : Variable
Bit rate : 13.4 Mb/s
Maximum bit rate : 15.0 Mb/s
Width : 1 920 pixels
Height : 800 pixels
Display aspect ratio : 2.40:1
Frame rate mode : Constant
Frame rate : 23.976 (24000/1001/189150) FPS
Color space : YUV
Chroma subsampling : 4:2:0
Bit depth : 8 bits
Scan type : Progressive
Bits/(Pixel*Frame) : 0.364
Stream size : 8.30 GiB (94%)
Title : 13.4 Mb/s
Writing library : x264 core 148 r2623 d5b2374
Encoding settings : cabac=1 / ref=4 / deblock=1:-1:-1 / analyse=0x3:0x133 / me=umh / subme=9 / psy=1 / psy_rd=1.00:0.15 / mixed_ref=1 / me_range=24 / chroma_me=1 / trellis=2 / 8x8dct=1 / cqm=0 / deadzone=21,11 / fast_pskip=1 / chroma_qp_offset=-3 / threads=25 / lookahead_threads=4 / sliced_threads=0 / nr=150 / decimate=1 / interlaced=0 / bluray_compat=0 / constrained_intra=0 / bframes=8 / b_pyramid=2 / b_adapt=2 / b_bias=0 / direct=3 / weightb=1 / open_gop=0 / weightp=2 / keyint=120 / keyint_min=61 / scenecut=0 / intra_refresh=0 / rc_lookahead=120 / rc=crf / mbtree=1 / crf=18.0 / qcomp=0.60 / qpmin=0 / qpmax=69 / qpstep=4 / vbv_maxrate=15000 / vbv_bufsize=31250 / crf_max=0.0 / nal_hrd=vbr / filler=0 / ip_ratio=1.40 / aq=3:1.00
Language : English
Default : Yes
Forced : No
Color range : Limited
Color primaries : BT.709
Transfer characteristics : BT.709
Matrix coefficients : BT.709

Audio #1
ID : 2
Format : AC-3
Format/Info : Audio Coding 3
Commercial name : Dolby Digital
Codec ID : A_AC3
Duration : 1 h 28 min
Bit rate mode : Constant
Bit rate : 448 kb/s
Channel(s) : 6 channels
Channel layout : L R C LFE Ls Rs
Sampling rate : 48.0 kHz
Frame rate : 31.250 FPS (1536 SPF)
Compression mode : Lossy
Stream size : 284 MiB (3%)
Language : Japanese
Service kind : Complete Main
Default : Yes
Forced : No

Audio #2
ID : 3
Format : AC-3
Format/Info : Audio Coding 3
Commercial name : Dolby Digital
Codec ID : A_AC3
Duration : 1 h 28 min
Bit rate mode : Constant
Bit rate : 448 kb/s
Channel(s) : 6 channels
Channel layout : L R C LFE Ls Rs
Sampling rate : 48.0 kHz
Frame rate : 31.250 FPS (1536 SPF)
Compression mode : Lossy
Stream size : 284 MiB (3%)
Language : English
Service kind : Complete Main
Default : No
Forced : No

Text
ID : 4
Format : UTF-8
Codec ID : S_TEXT/UTF8
Codec ID/Info : UTF-8 Plain Text
Duration : 1 h 28 min
Bit rate : 22 b/s
Count of elements : 549
Stream size : 14.7 KiB (0%)
Language : English
Default : Yes
Forced : No

Menu
00:00:00.000 : Chapter 1
00:04:54.961 : Chapter 2
00:09:27.233 : Chapter 3
00:15:31.597 : Chapter 4
00:19:18.782 : Chapter 5
00:23:23.527 : Chapter 6
00:29:50.914 : Chapter 7
00:36:08.791 : Chapter 8
00:41:02.501 : Chapter 9
00:47:03.904 : Chapter 10
00:54:28.348 : Chapter 11
01:01:08.206 : Chapter 12
01:06:04.251 : Chapter 13
01:12:58.082 : Chapter 14
01:18:20.821 : Chapter 15
01:25:52.272 : Chapter 16





1 个附件 售价 大小 下载 时间

The.Mytserians.1957.JAPANESE.1080p.AMZN.WEBRip.DD5.1.x264-NOGRP.torrent 0 金币 44.92K 511 次 1月前

#1楼
发帖时间:2021-06-13 18:54:25   |   回复数:0
游客组