fg603603
武林盟主

[2014] [日本] [剧情] [BD-1080P] 哪啊哪啊神去村/WOOD JOB!哪啊哪啊神去村 Wood.Job.2014.JAPANESE.1080p.BluRay.x264.DTS-VHD 15.00G

-->

帖子完整标题:哪啊哪啊神去村/WOOD JOB!哪啊哪啊神去村 Wood.Job.2014.JAPANESE.1080p.BluRay.x264.DTS-VHD 15.00GB



◎译  名 哪啊哪啊神去村/WOOD JOB!哪啊哪啊神去村/哪啊哪啊~神去村(台)/恋上春树(港)/悠哉神去村/神去村日常
◎片  名 WOOD JOB!神去なあなあ日常
◎年  代 2014
◎产  地 日本
◎类  别 剧情 / 喜剧
◎语  言 日语
◎上映日期 2014-05-10(日本)
◎豆瓣评分 8.6/10 from 140128 users
◎豆瓣链接 https://movie.douban.com/subject/24741412/
◎片  长 116分钟
◎导  演 矢口史靖 Shinobu Yaguchi
◎编  剧 矢口史靖 Shinobu Yaguchi / 三浦紫苑 Shiwon Miura
◎主  演 染谷将太 Sh?ta Sometani
      长泽雅美 Masami Nagasawa
      伊藤英明 Hideaki Ito
      西田尚美 Naomi Nishida
      槙田雄司 Makita Sports
      优香 Yuka
      近藤芳正 Yoshimasa Kond?
      光石研 Ken Mitsuishi
      柄本明 Akira Emoto
      清野菜名 Nana Seino
      菅原大吉 Daikichi Sugawara
      古川雄辉 Y?ki Furukawa
      田中要次 Y?ji Tanaka

◎标  签 日本 | 喜剧 | 自然 | 青春 | 温情 | 成长 | 励志 | 2014

◎简  介

  因为考大学失败,刚刚告别高中时代的都市青年平野勇气(染谷将太 饰)站在人生的十字路口。他偶然被林业培训生宣传材料上的美丽女孩所吸引,于是脑瓜一热来到三重县一个连手机信号都没有的偏僻小山村接受为期一年的林业培训课程。一开始他吊儿郎当,毫无干劲儿,因此饱受前辈饭田与喜(伊藤英明 饰)的斥责。正当勇气准备逃离之际,与封面美女石井直纪(长泽雅美 饰)不期而遇让他鬼使神差地又回到宿舍。前期培训结束,勇气随着饭田前辈来到神去村,跟随师父(光石研 饰)开始实地修行与学习。严苛的环境打磨着这个都市青年的骄傲和浮躁,不知不觉中他已成长为足以独当一面的优秀伐木工……
  
  本片根据三浦紫苑的同名原作改编。

◎获奖情况

  第38届日本电影学院奖 ?(2015)
  最佳男配角(提名) 伊藤英明
  
  第9届亚洲电影大奖 ?(2015)
  最佳男配角(提名) 伊藤英明
  
  第1届豆瓣电影年度榜单 ?(2014)
  评分最高的日本电影
  
  第5届豆瓣电影鑫像奖 ?(2015)
  鑫豆单元最佳日本电影

Video
ID : 5
Format : AVC
Format/Info : Advanced Video Codec
Format profile : [email protected]
Format settings : CABAC / 4 Ref Frames
Format settings, CABAC : Yes
Format settings, Reference frames : 4 frames
Codec ID : V_MPEG4/ISO/AVC
Duration : 1 h 56 min
Bit rate : 17.0 Mb/s
Width : 1 920 pixels
Height : 1 038 pixels
Display aspect ratio : 1.85:1
Frame rate mode : Constant
Frame rate : 23.976 (24000/1001/189150) FPS
Color space : YUV
Chroma subsampling : 4:2:0
Bit depth : 8 bits
Scan type : Progressive
Bits/(Pixel*Frame) : 0.355
Stream size : 13.8 GiB (92%)
Writing library : x264 core 148 r2665kMod a01e339
Encoding settings : cabac=1 / ref=4 / deblock=1:-3:-3 / analyse=0x3:0x133 / me=umh / subme=10 / psy=1 / fade_compensate=0.00 / psy_rd=1.00:0.00 / mixed_ref=1 / me_range=24 / chroma_me=1 / trellis=2 / 8x8dct=1 / cqm=0 / deadzone=21,11 / fast_pskip=0 / chroma_qp_offset=-2 / threads=12 / lookahead_threads=2 / sliced_threads=0 / nr=0 / decimate=0 / interlaced=0 / bluray_compat=0 / constrained_intra=0 / fgo=0 / bframes=8 / b_pyramid=2 / b_adapt=2 / b_bias=0 / direct=3 / weightb=1 / open_gop=0 / weightp=2 / keyint=250 / keyint_min=23 / scenecut=40 / intra_refresh=0 / rc_lookahead=60 / rc=crf / mbtree=0 / crf=17.5000 / qcomp=0.65 / qpmin=0 / qpmax=69 / qpstep=4 / vbv_maxrate=62500 / vbv_bufsize=78125 / crf_max=0.0 / nal_hrd=none / filler=0 / ip_ratio=1.30 / pb_ratio=1.20 / aq=3:0.80
Language : English
Default : Yes
Forced : No
Color range : Limited
Matrix coefficients : BT.709

Audio
ID : 1
Format : DTS
Format/Info : Digital Theater Systems
Codec ID : A_DTS
Duration : 1 h 56 min
Bit rate mode : Constant
Bit rate : 1 509 kb/s
Channel(s) : 6 channels
Channel layout : C L R Ls Rs LFE
Sampling rate : 48.0 kHz
Frame rate : 93.750 FPS (512 SPF)
Bit depth : 24 bits
Compression mode : Lossy
Stream size : 1.22 GiB (8%)
Language : Japanese
Default : Yes
Forced : No

Text #1
ID : 2
Format : UTF-8
Codec ID : S_TEXT/UTF8
Codec ID/Info : UTF-8 Plain Text
Duration : 1 h 55 min
Bit rate : 26 b/s
Count of elements : 1042
Stream size : 22.3 KiB (0%)
Language : English
Default : Yes
Forced : No

Text #2
ID : 3
Format : ASS
Codec ID : S_TEXT/ASS
Codec ID/Info : Advanced Sub Station Alpha
Duration : 1 h 55 min
Bit rate : 78 b/s
Count of elements : 1082
Compression mode : Lossless
Stream size : 66.2 KiB (0%)
Language : Russian
Default : No
Forced : No

Text #3
ID : 4
Format : UTF-8
Codec ID : S_TEXT/UTF8
Codec ID/Info : UTF-8 Plain Text
Duration : 1 h 55 min
Bit rate : 40 b/s
Count of elements : 1044
Stream size : 34.4 KiB (0%)
Language : Vietnamese
Default : No
Forced : No

Menu
00:00:00.000 : en:00:00:00.000
00:03:15.529 : en:00:03:15.529
00:07:03.923 : en:00:07:03.923
00:10:19.077 : en:00:10:19.077
00:13:17.046 : en:00:13:17.046
00:18:16.304 : en:00:18:16.304
00:25:53.844 : en:00:25:53.844
00:30:21.611 : en:00:30:21.611
00:33:32.594 : en:00:33:32.594
00:41:34.992 : en:00:41:34.992
00:45:47.662 : en:00:45:47.662
00:52:25.893 : en:00:52:25.893
00:59:27.272 : en:00:59:27.272
01:09:42.845 : en:01:09:42.845
01:13:41.125 : en:01:13:41.125
01:18:33.918 : en:01:18:33.918
01:29:23.567 : en:01:29:23.567
01:34:39.132 : en:01:34:39.132
01:45:12.598 : en:01:45:12.598
01:51:28.724 : en:01:51:28.724





1 个附件 售价 大小 下载 时间

Wood.Job.2014.JAPANESE.1080p.BluRay.x264.DTS-VHD.torrent 0 金币 75.61K 1803 次 1月前

#1楼
发帖时间:2021-06-14 10:40:57   |   回复数:2
liyouchai
隐世仙人♂
谢谢楼主分享资源
1月前 #2楼
Buffett
武林高手
长泽雅美
佳片
1月前 #3楼
游客组