topgood
武林高手

[更 早] [日本] [剧情] [WEB-1080P] 地狱 Hell.1979.JAPANESE.1080p.AMZN.WEBRip.DDP2.0.x264-ARiN 12.33GB

-->

帖子完整标题:地狱 Hell.1979.JAPANESE.1080p.AMZN.WEBRip.DDP2.0.x264-ARiN 12.33GB



◎译  名 地狱/Jigoku/The Inferno
◎片  名 地獄
◎年  代 1979
◎产  地 日本
◎类  别 剧情 / 恐怖
◎语  言 日语
◎上映日期 1979-06-03
◎豆瓣评分 6.7/10 from 374 users
◎豆瓣链接 https://movie.douban.com/subject/3021466/
◎片  长 131 分钟
◎导  演 神代辰巳 Tatsumi Kumashiro
◎编  剧 田中阳造 Y?z? Tanaka
◎主  演 原田美枝子 Mieko Harada
      岸田今日子 Ky?ko Kishida
      石桥莲司 Renji Ishibashi
      林隆三 Ry?z? Hayashi
      田中邦卫 Kunie Tanaka
      浜村淳 Jun Hamamura
      金子信雄 Nobuo Kaneko
      加藤嘉 Yoshi Kat?
      栗田裕美 Hiromi Kurita
      毛利菊枝 Kikue M?ri
      西田健 Ken Nishida
      佐藤友美 Tomomi Sato

◎标  签 原田美枝子 | 日本 | 恐怖 | 日本电影 | 1979 | 恐怖片 | 神代辰巳 | 日本電影

◎简  介

  孤児院で育ったレーサーの水沼アキは、事故を起こして休養の旅の途中、生形幸男と知り合い、彼の生家、生形村を訪れる。そこにあった「金輪を回し、止まれば極楽、逆に戻れば地獄」と言い伝えのある笠卒塔婆に指をふれると、金輪は物凄い速度で逆回転をして地鳴りが起こった。足元が崩れ、そこに地獄が現われた。失神したアキの目に映じたものは、呪われたアキの出生の秘密と姦通の罪で地獄にのたうつ母の姿だった。この村はアキの生まれ故郷。アキは生形竜造と、弟雲平の嫁ミホとの間に生まれた不義の娘。竜造とミホは雲平に殺され、アキは竜造の妻シマによって孤児院に送られたのだ。竜造とシマの間には松男と幸男の二人の兄弟がいた。暫くして、失神したアキを見つけて介抱していた幸男の兄松男は彼女を抱いてしまう。アキの出現で平穏を保ってきた生形家に亀裂が生じた。亡き妻ミホの面影を求めて執拗に迫る雲平、アキの豊満な肉体が忘れられない松男。シマはアキがミホの娘と知ると、村人を使って強姦させようとするが、間違って養女の久美が犯されてしまう。そして腹違いの兄妹と知りつつ愛しあう幸男とアキ。「妹ひとりを地獄に行かせて、俺だけ逃げるわけにはいかない」アキと幸男は最も罪深い近親相姦に、最も至純な愛のかたちを見いだしたのだ。久美は焼身自殺をとげ、雲平はアキの引く三味線の音に誘われるまま崖から転落死し、シマは土牢の中でミイラとなった竜造の頭を胸に抱き、舌をかみきって死ぬ。20年前のミホと竜造と同じ崖道を進むアキと幸男。二人を追う松男と村人達。その時、頭上の岩が落下して松男達を襲った。山小屋で兄妹は抱きあう。そして山小屋が湖へ落ちていった。湖をどこまでも沈んでいくと、やがて闇が少しづつ晴れ、三途の川が広がってきた。阿鼻叫喚の地獄をめぐるアキ。そこにはシマ、久美、村人達、竜造と雲平、幸男と松男がいる。ついにアキは獣と化したミホと対面した。「母さん!」アキは叫ぶが母には我子の判別もつかない。母に声をかけた報いに、アキは足元から樹の幹に変っていった。そしてミホは桜の木になったアキに体当りをはじめた。ギシッと樹の幹が真二つに折れると玉のような赤子が産声をあげた。柔らかな朝の光のそそぐなか、その赤子は生を歓喜するように泣いていた。

Video
ID : 1
Format : AVC
Format/Info : Advanced Video Codec
Format profile : [email protected]
Format settings : CABAC / 4 Ref Frames
Format settings, CABAC : Yes
Format settings, Reference frames : 4 frames
Codec ID : V_MPEG4/ISO/AVC
Duration : 2 h 8 min
Bit rate mode : Variable
Bit rate : 13.6 Mb/s
Maximum bit rate : 15.0 Mb/s
Width : 1 920 pixels
Height : 1 080 pixels
Display aspect ratio : 16:9
Frame rate mode : Constant
Frame rate : 23.976 (24000/1001/189150) FPS
Color space : YUV
Chroma subsampling : 4:2:0
Bit depth : 8 bits
Scan type : Progressive
Bits/(Pixel*Frame) : 0.273
Stream size : 12.1 GiB (98%)
Default : Yes
Forced : No
Color range : Limited
Color primaries : BT.709
Transfer characteristics : BT.709
Matrix coefficients : BT.709

Audio
ID : 2
Format : E-AC-3
Format/Info : Enhanced AC-3
Commercial name : Dolby Digital Plus
Codec ID : A_EAC3
Duration : 2 h 8 min
Bit rate mode : Constant
Bit rate : 224 kb/s
Channel(s) : 2 channels
Channel layout : L R
Sampling rate : 48.0 kHz
Frame rate : 31.250 FPS (1536 SPF)
Compression mode : Lossy
Stream size : 205 MiB (2%)
Language : Japanese
Service kind : Complete Main
Default : Yes
Forced : No

Text
ID : 3
Format : UTF-8
Codec ID : S_TEXT/UTF8
Codec ID/Info : UTF-8 Plain Text
Duration : 2 h 7 min
Bit rate : 26 b/s
Count of elements : 894
Stream size : 24.9 KiB (0%)
Language : English
Default : Yes
Forced : No





1 个附件 售价 大小 下载 时间

Hell.1979.JAPANESE.1080p.AMZN.WEBRip.DDP2.0.x264-ARiN.torrent 0 金币 62.27K 1043 次 1月前

#1楼
发帖时间:2021-06-14 19:42:49   |   回复数:0
游客组