fg603603
武林盟主

[2020] [日本] [其他] [BD-720P] 鬼灭之刃 剧场版 无限列车篇 Demon.Slayer.the.Movie.Mugen.Train.2020.JAPANESE.720p.BluRay.x264

-->

帖子完整标题:鬼灭之刃 剧场版 无限列车篇 Demon.Slayer.the.Movie.Mugen.Train.2020.JAPANESE.720p.BluRay.x264.DTS-FGT 5.72GB



◎译  名 鬼灭之刃 剧场版 无限列车篇/Demon Slayer -Kimetsu No Yaiba- The Movie: Mugen Train/Kimetsu no Yaiba: Mugen Ressha-Hen
◎片  名 劇場版 鬼滅の刃 無限列車編
◎年  代 2020
◎产  地 日本
◎类  别 动画
◎语  言 日语
◎上映日期 2020-10-16(日本)
◎豆瓣评分 8.0/10 from 50293 users
◎豆瓣链接 https://movie.douban.com/subject/34845781/
◎片  长 117分钟
◎导  演 外崎春雄 Sotozaki Haruo
◎编  剧 吾峠呼世晴 Koyoharu Gotouge
◎主  演 花江夏树 Natsuki Hanae
      鬼头明里 Akari Kitō
      下野纮 Hiro Shimono
      松冈祯丞 Yoshitsugu Matsuoka
      日野聪 Satoshi Hino
      平川大辅 Daisuke Hirakawa
      石田彰 Akira Ishida
      樱井孝宏 Takahiro Sakurai
      小西克幸 Katsuyuki Konishi
      早见沙织 Saori Hayami
      铃村健一 Kenichi Suzumura
      关智一 Tomokazu Seki
      杉田智和 Tomokazu Sugita
      森川智之 Toshiyuki Morikawa
      佐藤利奈 Rina Satou
      三木真一郎 Shinichir? Miki
      桑岛法子 Houko Kuwashima
      本渡枫 Kaede Hondo
      大地叶 You Taichi
      小原好美 Konomi Kohara
      古贺葵 Aoi Koga
      小山力也 Rikiya Koyama
      丰口惠美 Megumi Toyoguchi
      榎木淳弥 Junya Enoki
      伊濑茉莉也 Mariya Ise
      笠间淳 Jun Kasama
      千本木彩花 Sayaka Senbongi
      江口拓也 Takuya Eguchi
      山村响 Hibiku Yamamura
      广濑裕也 Yuya Hirose
      高桥伸也 Takahashi Shinya
      仲村宗悟 Nakamura Shuugo
      中惠光城 Mitsuki Nakae

◎标  签 热血 | 日漫 | 日本 | 动画 | 战斗 | 成长 | 2021 | 动画片

◎简  介

  该片基于吾峠呼世所著漫画《鬼灭之刃》创作而成,是2019年播出的TV动画的续篇,讲述灶门炭治郎和炼狱杏寿郎与下弦之壹魇梦作战的故事。

◎获奖情况

  第44届日本电影学院奖 ?(2021)
  最佳动画片
  最佳配乐 椎名豪?/?梶浦由记
  
  第25届金卫星奖 ?(2021)
  电影部门最佳动画片(提名)

Video
ID : 1
Format : AVC
Format/Info : Advanced Video Codec
Format profile : [email protected]
Format settings : CABAC / 4 Ref Frames
Format settings, CABAC : Yes
Format settings, Reference frames : 4 frames
Codec ID : V_MPEG4/ISO/AVC
Duration : 1 h 56 min
Bit rate : 5 500 kb/s
Width : 1 280 pixels
Height : 720 pixels
Display aspect ratio : 16:9
Frame rate mode : Constant
Frame rate : 23.976 (24000/1001/189150) FPS
Color space : YUV
Chroma subsampling : 4:2:0
Bit depth : 8 bits
Scan type : Progressive
Bits/(Pixel*Frame) : 0.249
Stream size : 4.48 GiB (78%)
Writing library : x264 core 148 r2795M aaa9aa8
Encoding settings : cabac=1 / ref=4 / deblock=1:1:1 / analyse=0x3:0x113 / me=umh / subme=8 / psy=1 / psy_rd=0.50:0.00 / mixed_ref=1 / me_range=32 / chroma_me=1 / trellis=2 / 8x8dct=1 / cqm=0 / deadzone=21,11 / fast_pskip=1 / chroma_qp_offset=-2 / threads=72 / lookahead_threads=3 / sliced_threads=0 / nr=0 / decimate=1 / interlaced=0 / bluray_compat=0 / constrained_intra=0 / bframes=3 / b_pyramid=2 / b_adapt=1 / b_bias=0 / direct=3 / weightb=1 / open_gop=0 / weightp=2 / keyint=240 / keyint_min=24 / scenecut=40 / intra_refresh=0 / rc_lookahead=50 / rc=2pass / mbtree=1 / bitrate=5500 / ratetol=1.0 / qcomp=0.60 / qpmin=0 / qpmax=69 / qpstep=4 / cplxblur=20.0 / qblur=0.5 / vbv_maxrate=31250 / vbv_bufsize=31250 / nal_hrd=none / filler=0 / ip_ratio=1.40 / aq=3:0.60
Language : Japanese
Default : Yes
Forced : No

Audio
ID : 2
Format : DTS
Format/Info : Digital Theater Systems
Codec ID : A_DTS
Duration : 1 h 56 min
Bit rate mode : Constant
Bit rate : 1 509 kb/s
Channel(s) : 6 channels
Channel layout : C L R Ls Rs LFE
Sampling rate : 48.0 kHz
Frame rate : 93.750 FPS (512 SPF)
Bit depth : 24 bits
Compression mode : Lossy
Stream size : 1.23 GiB (22%)
Language : Japanese
Default : Yes
Forced : No

Text
ID : 3
Format : UTF-8
Codec ID : S_TEXT/UTF8
Codec ID/Info : UTF-8 Plain Text
Duration : 1 h 55 min
Bit rate : 50 b/s
Count of elements : 1450
Stream size : 43.0 KiB (0%)
Language : English
Default : Yes
Forced : No

Menu
00:00:00.000 : Chapter 01
00:05:28.828 : Chapter 02
00:16:10.678 : Chapter 03
00:23:02.590 : Chapter 04
00:35:00.724 : Chapter 05
00:44:45.683 : Chapter 06
00:50:19.934 : Chapter 07
01:00:58.572 : Chapter 08
01:06:12.260 : Chapter 09
01:19:23.092 : Chapter 10
01:31:04.751 : Chapter 11
01:47:11.216 : Chapter 12
01:51:55.876 : Chapter 13





1 个附件 售价 大小 下载 时间

Demon.Slayer.the.Movie.Mugen.Train.2020.JAPANESE.720p.BluRay.x264.DTS-FGT.torrent 0 金币 29.25K 1897 次 1月前

#1楼
发帖时间:2021-06-16 22:21:17   |   回复数:0
游客组