travismk
一代宗师

[更 早] [日本] [喜剧] [BD-1080P] 摇滚狂人 Wild.Zero.1999.JAPANESE.1080p.BluRay.x264.DTS-FGT 9.01GB

-->

帖子完整标题:摇滚狂人 Wild.Zero.1999.JAPANESE.1080p.BluRay.x264.DTS-FGT 9.01GB



◎译  名 摇滚狂人/Wild Zero
◎片  名 Wild Zero
◎年  代 2000
◎产  地 日本
◎类  别 喜剧 / 动作 / 爱情 / 科幻 / 恐怖 / 音乐
◎语  言 日语
◎上映日期 2000-09-30
◎豆瓣评分 7.4/10 from 269 users
◎豆瓣链接 https://movie.douban.com/subject/1437761/
◎片  长 98 分钟
◎导  演 Tetsuro Takeuchi
◎编  剧 Tetsuro Takeuchi
◎主  演 Bass Wolf
      Guitar Wolf
      远藤雅 Masashi End?
      池泽春菜 Haruna Ikezawa
      并木史郎 Shir? Namiki
      森下能幸 Yoshiyuki Morishita
      浅田叶子 Youko Asada
      Drum Wolf

◎标  签 日本 | cult | 摇滚 | 日本电影 | 僵尸 | 邪典 | 2000 | Cult

◎简  介

  影介绍
  
  影片以一群UFO飞向地球作为序曲,丧尸的出现使影片进入高潮并显示幽默。动作迟缓苯锉的丧尸自然成了主人公名正言顺屠杀的猎物。而在另一部《生死相对》中的屠杀丧尸也是尽显主人公的英勇本色。到是丧尸的样貌低级可笑,腐烂的肌肤千疮百孔,嘴脚流淌的绿色液体只能让人呕吐反胃,却不能如伶俐鬼怪般令观众寝食难安。
  
  且不说人模鬼样的丧尸,影片中面目可憎的角色也是比比皆是。一个喜欢着异性迷你装扮的大叔,身体比例失调的大婶,一脸倒霉状的瘪三小胡子,还有个着古董女泳装的暴力女。最后两具中年丧尸在街头猛打Kiss的过程也是史无前例,主唱SEIJI干掉宇宙飞船挽救地球的那一记刀光,都算是挑战观众极限了。
  
  镜头被肮脏浑搅的元素充满却也不忘点缀一缕红绿。片中清新的女主角就是个强烈的反差,她脚下一双米色匡威滑板女鞋另人眼前一亮,淡色七分裤,着一身卡其布碎格衬衫,清秀面额上的每个器官都很精致。于是男主角ACE(远藤唯饰)就大可上演英雄救美了。
  
  影片评价  《摇滚狂人》(WILD ZERO),并树史朗、森下能幸、仲条春香、稻宫诚主演,竹内铁郎导演。这是部蕴藏黑色幽默的cult片。导演的想法极其精灵古怪富有颠覆。都市被蝗虫般的UFO遮盖,人类逐渐毁灭,原来是外星人玩转地球。此类的硬Cult片与冢本晋也的《铁男》类型片在本质上是不同的,到接近于北村龙平的《生死相对》风格。

Video
ID : 1
Format : AVC
Format/Info : Advanced Video Codec
Format profile : [email protected]
Format settings : CABAC / 4 Ref Frames
Format settings, CABAC : Yes
Format settings, Reference frames : 4 frames
Codec ID : V_MPEG4/ISO/AVC
Duration : 1 h 39 min
Bit rate : 11.5 Mb/s
Width : 1 912 pixels
Height : 1 080 pixels
Display aspect ratio : 16:9
Frame rate mode : Constant
Frame rate : 24.000 FPS
Color space : YUV
Chroma subsampling : 4:2:0
Bit depth : 8 bits
Scan type : Progressive
Bits/(Pixel*Frame) : 0.232
Stream size : 7.96 GiB (88%)
Writing library : x264 core 148 r2795M aaa9aa8
Encoding settings : cabac=1 / ref=4 / deblock=1:-2:-2 / analyse=0x3:0x113 / me=umh / subme=9 / psy=1 / psy_rd=1.00:0.15 / mixed_ref=1 / me_range=16 / chroma_me=1 / trellis=2 / 8x8dct=1 / cqm=0 / deadzone=21,11 / fast_pskip=1 / chroma_qp_offset=-3 / threads=24 / lookahead_threads=3 / sliced_threads=0 / nr=0 / decimate=1 / interlaced=0 / bluray_compat=0 / constrained_intra=0 / bframes=3 / b_pyramid=2 / b_adapt=1 / b_bias=0 / direct=3 / weightb=1 / open_gop=0 / weightp=2 / keyint=250 / keyint_min=25 / scenecut=40 / intra_refresh=0 / rc_lookahead=50 / rc=2pass / mbtree=1 / bitrate=11500 / ratetol=1.0 / qcomp=0.60 / qpmin=0 / qpmax=69 / qpstep=4 / cplxblur=20.0 / qblur=0.5 / vbv_maxrate=31250 / vbv_bufsize=31250 / nal_hrd=none / filler=0 / ip_ratio=1.40 / aq=1:1.00
Language : Japanese
Default : Yes
Forced : No

Audio
ID : 2
Format : DTS
Format/Info : Digital Theater Systems
Codec ID : A_DTS
Duration : 1 h 39 min
Bit rate mode : Constant
Bit rate : 1 509 kb/s
Channel(s) : 2 channels
Channel layout : L R
Sampling rate : 48.0 kHz
Frame rate : 93.750 FPS (512 SPF)
Bit depth : 16 bits
Compression mode : Lossy
Stream size : 1.04 GiB (12%)
Language : Japanese
Default : Yes
Forced : No

Text
ID : 3
Format : UTF-8
Codec ID : S_TEXT/UTF8
Codec ID/Info : UTF-8 Plain Text
Duration : 1 h 37 min
Bit rate : 24 b/s
Count of elements : 663
Stream size : 17.1 KiB (0%)
Language : English
Default : Yes
Forced : No





1 个附件 售价 大小 下载 时间

Wild.Zero.1999.JAPANESE.1080p.BluRay.x264.DTS-FGT.torrent 0 金币 45.67K 672 次 1月前

#1楼
发帖时间:2021-06-17 19:05:40   |   回复数:0
游客组