travismk
一代宗师

[2013] [日本] [其他] [BD-1080P] 空之境界 未来福音 The.Garden.of.Sinners.Recalled.Out.Summer.2013.JAPANESE.1080p.BluRay.x

-->

帖子完整标题:空之境界 未来福音 The.Garden.of.Sinners.Recalled.Out.Summer.2013.JAPANESE.1080p.BluRay.x264.DD5.1-NY 5.95GB



◎译  名 空之境界 未来福音/Future Gospel/Kara no Kyoukai: Mirai Fukuin/The Garden of Sinners: Recalled Out Summer/空之境界剧场版:未来福音
◎片  名 劇場版 空の境界 未来福音
◎年  代 2013
◎产  地 日本
◎类  别 动画
◎语  言 日语
◎上映日期 2013-09-28(日本)
◎豆瓣评分 9.1/10 from 9168 users
◎豆瓣链接 https://movie.douban.com/subject/11499092/
◎片  长 90分钟
◎导  演 须藤友德 Tomonori Sud?
◎编  剧 奈须蘑菇 Kinoko Nasu
◎主  演 坂本真绫 Maaya Sakamoto
      铃村健一 Kenichi Suzumura
      本田贵子 Takako Honda
      井口裕香 Yuka Iguchi
      石田彰 Akira Ishida
      金元寿子 Hisako Kanemoto
      藤村步 Ayumi Fujimura
      东地宏树 Hiroki Touchi
      大西沙织 Saori Oonishi
      松本和香子 Kujira

◎标  签 空の境界 | 剧场版 | 动画 | 日本 | 日本动画 | 动漫 | type-moon | 空之境界

◎简  介

  1998年夏季,拥有预测型未来视的女孩濑尾静音(井口裕香 配音)邂逅伽蓝之堂的黑桐干也(铃村健一 配音)。从对方口中,她了解到未来视的真相,心中的疑惑和焦虑也烟消云散,但同时也看到了干也悲剧性的未来。另一方面,拥有测定型未来视的职业炸弹狂魔仓密目琉夏,利用自己构建的未来制造一系列恐怖袭击事件,直到他遭遇冷静干练的两仪式(坂本真绫 配音),命运的齿轮开始转动。转眼来到2010年,失去了未来视能力的瓶仓光瑠(石田彰 配音)转行做了绘本画家,命运安排他和两仪式及其女儿未那(金元寿子 配音)相逢,此后他和崇拜自己的未那拜访了传奇占卜师观布子之母……
  
  本片根据奈须蘑菇以及武内崇创作的同名原作改编。

Video
ID : 1
Format : AVC
Format/Info : Advanced Video Codec
Format profile : [email protected]
Format settings : CABAC / 4 Ref Frames
Format settings, CABAC : Yes
Format settings, Reference frames : 4 frames
Codec ID : V_MPEG4/ISO/AVC
Duration : 1 h 28 min
Bit rate : 8 950 kb/s
Width : 1 920 pixels
Height : 1 080 pixels
Display aspect ratio : 16:9
Frame rate mode : Constant
Frame rate : 23.976 (24000/1001/189150) FPS
Color space : YUV
Chroma subsampling : 4:2:0
Bit depth : 8 bits
Scan type : Progressive
Bits/(Pixel*Frame) : 0.180
Stream size : 5.55 GiB (93%)
Writing library : x264 core 157 r2935 545de2f
Encoding settings : cabac=1 / ref=4 / deblock=1:-3:-3 / analyse=0x3:0x133 / me=umh / subme=10 / psy=1 / psy_rd=1.00:0.00 / mixed_ref=1 / me_range=32 / chroma_me=1 / trellis=2 / 8x8dct=1 / cqm=0 / deadzone=21,11 / fast_pskip=0 / chroma_qp_offset=-2 / threads=30 / lookahead_threads=7 / sliced_threads=0 / nr=0 / decimate=0 / interlaced=0 / bluray_compat=0 / constrained_intra=0 / bframes=16 / b_pyramid=2 / b_adapt=2 / b_bias=0 / direct=3 / weightb=1 / open_gop=0 / weightp=2 / keyint=240 / keyint_min=24 / scenecut=40 / intra_refresh=0 / rc_lookahead=60 / rc=crf / mbtree=0 / crf=19.0 / qcomp=0.60 / qpmin=0 / qpmax=69 / qpstep=4 / vbv_maxrate=62500 / vbv_bufsize=78125 / crf_max=0.0 / nal_hrd=none / filler=0 / ip_ratio=1.40 / pb_ratio=1.30 / aq=2:1.00
Default : Yes
Forced : No
Color range : Limited
Color primaries : BT.709
Transfer characteristics : BT.709
Matrix coefficients : BT.709

Audio
ID : 2
Format : AC-3
Format/Info : Audio Coding 3
Commercial name : Dolby Digital
Codec ID : A_AC3
Duration : 1 h 28 min
Bit rate mode : Constant
Bit rate : 640 kb/s
Channel(s) : 6 channels
Channel layout : L R C LFE Ls Rs
Sampling rate : 48.0 kHz
Frame rate : 31.250 FPS (1536 SPF)
Compression mode : Lossy
Stream size : 406 MiB (7%)
Language : Japanese
Service kind : Complete Main
Default : Yes
Forced : No

Text #1
ID : 3
Format : UTF-8
Codec ID : S_TEXT/UTF8
Codec ID/Info : UTF-8 Plain Text
Duration : 1 h 22 min
Bit rate : 58 b/s
Count of elements : 903
Stream size : 35.2 KiB (0%)
Title : SRT
Language : English
Default : Yes
Forced : No

Text #2
ID : 4
Format : PGS
Muxing mode : zlib
Codec ID : S_HDMV/PGS
Codec ID/Info : Picture based subtitle format used on BDs/HD-DVDs
Duration : 1 h 22 min
Bit rate : 27.8 kb/s
Count of elements : 1468
Stream size : 16.4 MiB (0%)
Language : English
Default : No
Forced : No

Menu
00:00:00.000 : :Chapter 01
00:02:50.003 : :Chapter 02
00:07:55.350 : :Chapter 03
00:15:27.468 : :Chapter 04
00:17:51.112 : :Chapter 05
00:22:17.503 : :Chapter 06
00:27:27.729 : :Chapter 07
00:40:35.016 : :Chapter 08
00:45:18.716 : :Chapter 09
00:53:12.189 : :Chapter 10
00:58:57.409 : :Chapter 11
01:14:17.244 : :Chapter 12
01:17:57.089 : :Chapter 13
01:23:04.313 : :Chapter 14
01:28:06.281 : :Chapter 15





1 个附件 售价 大小 下载 时间

The.Garden.of.Sinners.Recalled.Out.Summer.2013.JAPANESE.1080p.BluRay.x264.DD5.1-NY.torrent 0 金币 30.44K 1225 次 1月前

#1楼
发帖时间:2021-06-17 19:09:55   |   回复数:0
游客组